Jump to content

  •  

Search Form

Sorry, nothing found in database
Total results: , Page of
>
<


Photo
Mega

Dam Vinh Hung - Cho Dong - Da Khuc Cho Tinh Nhan 7 (2013) [FLAC]

Đàm Vĩnh Hưng 2013 FLAC tearofthesun


  • You cannot start a new topic
  • Please log in to reply
5 replies to this topic

#1 Offline tearofthesun - Posted 20 August 2013 - 01:03 PM

tearofthesun

    (。◕‿‿◕。)

  • Super Moderator
  • 5,517 posts
  • 2,602 topics
  • LocationHeaven
8,498
Godlike

Đàm Vĩnh Hưng - Chờ Đông (2013) [FLAC]

UraYm1C.jpg


qw4PiFb.jpg


:info:
ALBUM...............: Đàm Vĩnh Hưng - Chờ Đông
LABEL...............:  Tiếng Hát Việt
GENRE...............: Folk
SOURCE..............: CDDA
YEAR................: 2013
LANGUAGE............: Vietnamese
DURATION............: 1:04:23
WEBSITE.............: Tracker.hqmusic.vn
Exact Audio Copy V1.0 beta 2 from 29. April 2011

EAC extraction logfile from 20. August 2013, 9:26

Dam Vinh Hung / Chieu Dong

Used drive  : AlViDrv BDDVDROM   Adapter: 4  ID: 0

Read mode               : Secure
Utilize accurate stream : Yes
Defeat audio cache      : Yes
Make use of C2 pointers : No

Read offset correction                      : 6
Overread into Lead-In and Lead-Out          : No
Fill up missing offset samples with silence : Yes
Delete leading and trailing silent blocks   : No
Null samples used in CRC calculations       : Yes
Used interface                              : Native Win32 interface for Win NT & 2000
Gap handling                                : Appended to previous track

Used output format              : User Defined Encoder
Selected bitrate                : 1024 kBit/s
Quality                         : High
Add ID3 tag                     : No
Command line compressor         : C:\Program Files\Exact Audio Copy\Flac\flac.exe
Additional command line options : -8 -V -T "ARTIST=%artist%" -T "TITLE=%title%" -T "ALBUM=%albumtitle%" -T "DATE=%year%" -T "TRACKNUMBER=%tracknr%" -T "GENRE=%genre%" -T "PERFORMER=%albuminterpret%" -T "COMPOSER=%composer%" %haslyrics%--tag-from-file=LYRICS


TOC of the extracted CD

     Track |   Start  |  Length  | Start sector | End sector 
    ---------------------------------------------------------
        1  |  0:00.00 |  1:39.50 |         0    |     7474   
        2  |  1:39.50 |  4:13.16 |      7475    |    26465   
        3  |  5:52.66 |  3:12.48 |     26466    |    40913   
        4  |  9:05.39 |  4:41.69 |     40914    |    62057   
        5  | 13:47.33 |  5:09.69 |     62058    |    85301   
        6  | 18:57.27 |  4:48.39 |     85302    |   106940   
        7  | 23:45.66 |  4:35.72 |    106941    |   127637   
        8  | 28:21.63 |  5:05.40 |    127638    |   150552   
        9  | 33:27.28 |  5:02.09 |    150553    |   173211   
       10  | 38:29.37 |  4:21.63 |    173212    |   192849   
       11  | 42:51.25 |  4:26.36 |    192850    |   212835   
       12  | 47:17.61 |  5:35.28 |    212836    |   237988   
       13  | 52:53.14 |  4:46.18 |    237989    |   259456   
       14  | 57:39.32 |  3:36.41 |    259457    |   275697   
       15  | 61:15.73 |  3:05.65 |    275698    |   289637   


Track  1

     Filename E:\HQM\Dam Vinh Hung - Chieu Dong (2013) [FLAC]\01 - Loi Bat.wav

     Pre-gap length  0:00:02.00

     Peak level 99.2 %
     Extraction speed 79.9 X
     Track quality 100.0 %
     Test CRC E98B0674
     Copy CRC E98B0674
     Copy OK

Track  2

     Filename E:\HQM\Dam Vinh Hung - Chieu Dong (2013) [FLAC]\02 - Cho Dong.wav

     Peak level 99.8 %
     Extraction speed 86.8 X
     Track quality 100.0 %
     Test CRC B8B0ADC0
     Copy CRC B8B0ADC0
     Copy OK

Track  3

     Filename E:\HQM\Dam Vinh Hung - Chieu Dong (2013) [FLAC]\03 - Ben Nhau Ngay Vui.wav

     Peak level 99.8 %
     Extraction speed 92.2 X
     Track quality 100.0 %
     Test CRC C2D20635
     Copy CRC C2D20635
     Copy OK

Track  4

     Filename E:\HQM\Dam Vinh Hung - Chieu Dong (2013) [FLAC]\04 - Thuo Ay Co Em.wav

     Peak level 99.8 %
     Extraction speed 95.7 X
     Track quality 100.0 %
     Test CRC 99D54D98
     Copy CRC 99D54D98
     Copy OK

Track  5

     Filename E:\HQM\Dam Vinh Hung - Chieu Dong (2013) [FLAC]\05 - Nhat Ky Doi Toi.wav

     Peak level 99.7 %
     Extraction speed 95.6 X
     Track quality 100.0 %
     Test CRC BBAE1ADA
     Copy CRC BBAE1ADA
     Copy OK

Track  6

     Filename E:\HQM\Dam Vinh Hung - Chieu Dong (2013) [FLAC]\06 - Doan Buon Cho Toi.wav

     Peak level 99.8 %
     Extraction speed 84.9 X
     Track quality 99.9 %
     Test CRC 06659835
     Copy CRC 06659835
     Copy OK

Track  7

     Filename E:\HQM\Dam Vinh Hung - Chieu Dong (2013) [FLAC]\07 - Kiep Ngheo.wav

     Peak level 99.8 %
     Extraction speed 96.1 X
     Track quality 100.0 %
     Test CRC DC812BAC
     Copy CRC DC812BAC
     Copy OK

Track  8

     Filename E:\HQM\Dam Vinh Hung - Chieu Dong (2013) [FLAC]\08 - Hoi Tuong.wav

     Peak level 99.6 %
     Extraction speed 102.0 X
     Track quality 100.0 %
     Test CRC 84587D82
     Copy CRC 84587D82
     Copy OK

Track  9

     Filename E:\HQM\Dam Vinh Hung - Chieu Dong (2013) [FLAC]\09 - Neu Chung Minh Cach Tro.wav

     Peak level 99.8 %
     Extraction speed 95.8 X
     Track quality 99.9 %
     Test CRC A349C7BC
     Copy CRC A349C7BC
     Copy OK

Track 10

     Filename E:\HQM\Dam Vinh Hung - Chieu Dong (2013) [FLAC]\10 - Thoi Doi.wav

     Peak level 99.8 %
     Extraction speed 90.9 X
     Track quality 100.0 %
     Test CRC E3D1AB75
     Copy CRC E3D1AB75
     Copy OK

Track 11

     Filename E:\HQM\Dam Vinh Hung - Chieu Dong (2013) [FLAC]\11 - Hoi Nguoi Con Nho Den Ta.wav

     Peak level 100.0 %
     Extraction speed 95.4 X
     Track quality 100.0 %
     Test CRC 9D823CDF
     Copy CRC 9D823CDF
     Copy OK

Track 12

     Filename E:\HQM\Dam Vinh Hung - Chieu Dong (2013) [FLAC]\12 - Khong Bao Gio Quen Anh.wav

     Peak level 99.8 %
     Extraction speed 100.5 X
     Track quality 100.0 %
     Test CRC 1E6AE52B
     Copy CRC 1E6AE52B
     Copy OK

Track 13

     Filename E:\HQM\Dam Vinh Hung - Chieu Dong (2013) [FLAC]\13 - Doan Cuoi Tinh yeu.wav

     Peak level 99.7 %
     Extraction speed 100.1 X
     Track quality 100.0 %
     Test CRC D2CB0B30
     Copy CRC D2CB0B30
     Copy OK

Track 14

     Filename E:\HQM\Dam Vinh Hung - Chieu Dong (2013) [FLAC]\14 - Gap Nhau Lam Ngo.wav

     Peak level 99.8 %
     Extraction speed 95.6 X
     Track quality 100.0 %
     Test CRC A2D22F48
     Copy CRC A2D22F48
     Copy OK

Track 15

     Filename E:\HQM\Dam Vinh Hung - Chieu Dong (2013) [FLAC]\15 - Ghen.wav

     Peak level 99.8 %
     Extraction speed 93.3 X
     Track quality 100.0 %
     Test CRC 1F6F1D95
     Copy CRC 1F6F1D95
     Copy OK

No errors occurred

End of status report

==== Log checksum 5BF164BCEF2C94A36EF1BC826C696C66AE821E83EDB9FE5F4A91D5D274D9A332 ====
:tracklist:
01. Loi Bat
02. Cho Dong
03. Ben Nhau Ngay Vui
04. Thuo Ay Co Em
05. Nhat Ky Doi Toi
06. Doan Buon Cho Toi
07. Kiep Ngheo
08. Hoi Tuong
09. Neu Chung Minh Cach Tro
10. Thoi Doi
11. Hoi Nguoi Con Nho Den Ta
12. Khong Bao Gio Quen Anh
13. Doan Cuoi Tinh Yeu
14. Gap Nhau Lam Ngo
15. Ghen
:dl:
1 link - 5% Recovery record

Sau khi download về các bạn đổi tên file từ .fhd sang .rar rồi giải nén bình thường.
Các bạn chỉ cần download file
.rev khi có part bị lỗi hoặc link die. Chi tiết về file .rev các bạn có thể xem tại đây.

:mega:
Private Link:
PRIVATE CONTENT
This content for backup only. You can view public links below post to download


Public Link:
Hidden Content by Post
You need at least 1 post to view links.

:pw:
freehd.vn
:uploader:
tearofthesun@freehd.vn

Vợ là tài sản đầu tư sinh lời lớn nhất của người đàn ông.

Spoiler
Bộ sưu tập phim của tôi :D
ibn7dD18qYFTXm.jpg

#2 Offline ytclm0329 - Posted 20 August 2013 - 01:04 PM

ytclm0329

    Cạp văn L

  • Supporter
  • 9,473 posts
  • 2,328 topics
  • LocationFreeHD.vn
16,711
Someone Ban Him
  
Public link
:mega:
Hidden Content by Post
You need at least 1 post to view links.


#3 Offline picachu1220 - Posted 23 August 2013 - 10:52 PM

picachu1220

    Newbie

  • Members
  • 1 posts
  • 0 topics
0
Neutral

post 1 bài mới thấy được link



#4 Offline mr.kulok - Posted 28 August 2013 - 12:37 PM

mr.kulok

    Newbie

  • Members
  • 2 posts
  • 0 topics
0
Neutral

thanks so much



#5 Offline dngkhoi - Posted 04 September 2013 - 06:09 PM

dngkhoi

    Newbie

  • Members
  • 1 posts
  • 0 topics
0
Neutral

Phải post 1 bài mới thấy link. Thanks chủ topic nhiều



#6 Offline tridat - Posted 28 September 2013 - 06:05 AM

tridat

    Newbie

  • Members
  • 1 posts
  • 0 topics
0
Neutral

Thanks so much!






0 user(s) are reading this topic

0 members, 0 guests, 0 anonymous users