Jump to content

  •  

Search Form

Sorry, nothing found in database
Total results: , Page of
>
<


Photo
Mega

Lệ Quyên - Tình Khúc Yêu Thương (2012) [FLAC] {Viet Tan} {MFt} {Log 95%}

Lệ Quyên 2012 FLAC MFt Log tearofthesun


  • You cannot start a new topic
  • Please log in to reply
1 reply to this topic

#1 Offline tearofthesun - Posted 28 August 2013 - 02:03 AM

tearofthesun

    (。◕‿‿◕。)

  • Super Moderator
  • 5,592 posts
  • 2,636 topics
  • LocationHeaven
8,589
Godlike

Lệ Quyên - Tình Khúc Yêu Thương (2012) [FLAC]
{Viet Tan} {MFt} {Log 95%}

i4VLiyDk0roRb.jpg


iISMWIJQrdRKo.jpg


iNpAqdvNOouyA.jpg


:info:

Log Checked by WhatCD's Logchecker:

Score: 95 (out of 100)

The following properties decreased the score:

The drive was not found in the database, so we cannot determine the correct read offset. However, the read offset in this case was 0, which is almost never correct. As such, we are assuming that the offset is incorrect (-5 points)



---------------------------------------------------------------------
             Le Quyen - Tinh Khuc Yeu Thuong {Viet Tan}
---------------------------------------------------------------------

Artist...............: Le Quyen
Album................: Tinh Khuc Yeu Thuong {Viet Tan}
Genre................: Pop
Source...............: CD
Year.................: 2012
Ripper...............: Exact Audio Copy V1.0 beta 3 & OPTIARC BD RW BD-5730S
Codec................: Free Lossless Audio Codec (FLAC)
Version..............: reference libFLAC 1.2.1 20070917
Quality..............: Lossless, (avg. compression: 56 %)
Label................: Viet Tan Studio

Ripped by............: tdh on 6/27/2012
Posted by............: tdh on 6/27/2012
News Server..........: VNbits.org
News Group(s)........: MFt

Included..........: Artwork, M3U, CUE, LOG (100% Securely)

---------------------------------------------------------------------
                            Tracklist
---------------------------------------------------------------------

   1. Le Quyen - Xa Roi Mua Dong {Nguyen Nam}                 [04:08]
   2. Le Quyen - Da Khuc {Quoc Bao}                           [04:13]
   3. Le Quyen - Bien Can {Kim Tuan}                          [04:52]
   4. Le Quyen - Em Se Nho Mai {Duc Tri}                      [05:32]
   5. Le Quyen - Lang Dang Chieu Dong Ha Noi {Phu Quang}      [05:14]
   6. Le Quyen - Con Tim Tan Vo {Nguyen Duy An}               [05:10]
   7. Le Quyen - Hoa Sua {Hong Dang}                          [04:22]
   8. Le Quyen - Yeu Thuong Mong Manh {Duc Tri}               [06:09]
   9. Le Quyen - Ben Em La Bien Rong {Bao Chan}               [04:15]
  10. Le Quyen - Hiu Hat Doi Nhau {Le Vu}                     [04:34]
  11. Le Quyen - Chia Tay Tinh Dau {Nguyen Ngoc Thien}        [04:54]
  12. Le Quyen - Anh Sang Doi Toi {Minh Chau}                 [06:07]

Playing Time.........: 59:34
Exact Audio Copy V1.0 beta 3 from 29. August 2011

EAC extraction logfile from 27. June 2012, 1:40

Le Quyen / Tinh Khuc Yeu Thuong {Viet Tan}

Used drive  : OPTIARC BD RW BD-5730S   Adapter: 2  ID: 2

Read mode               : Secure
Utilize accurate stream : Yes
Defeat audio cache      : Yes
Make use of C2 pointers : No

Read offset correction                      : 0
Overread into Lead-In and Lead-Out          : No
Fill up missing offset samples with silence : Yes
Delete leading and trailing silent blocks   : No
Null samples used in CRC calculations       : Yes
Used interface                              : Native Win32 interface for Win NT & 2000
Gap handling                                : Appended to previous track

Used output format              : User Defined Encoder
Selected bitrate                : 1024 kBit/s
Quality                         : High
Add ID3 tag                     : No
Command line compressor         : C:\Program Files\Exact Audio Copy\Flac\flac.exe
Additional command line options : -8 -V -T "ARTIST=%artist%" -T "TITLE=%title%" -T "ALBUM=%albumtitle%" -T "DATE=%year%" -T "TRACKNUMBER=%tracknr%" -T "TOTALTRACKS=%numtracks%" -T "GENRE=%genre%" -T "ALBUM ARTIST=%albumartist%" -T "COMMENT=tdh | EAC V1.0 beta 3 Secure Mode, Test & Copy, AccurateRip, FLAC -8" %source%


TOC of the extracted CD

     Track |   Start  |  Length  | Start sector | End sector 
    ---------------------------------------------------------
        1  |  0:00.00 |  4:08.73 |         0    |    18672   
        2  |  4:08.73 |  4:13.08 |     18673    |    37655   
        3  |  8:22.06 |  4:52.21 |     37656    |    59576   
        4  | 13:14.27 |  5:32.43 |     59577    |    84519   
        5  | 18:46.70 |  5:14.11 |     84520    |   108080   
        6  | 24:01.06 |  5:10.63 |    108081    |   131393   
        7  | 29:11.69 |  4:22.08 |    131394    |   151051   
        8  | 33:34.02 |  6:09.24 |    151052    |   178750   
        9  | 39:43.26 |  4:15.14 |    178751    |   197889   
       10  | 43:58.40 |  4:34.13 |    197890    |   218452   
       11  | 48:32.53 |  4:54.52 |    218453    |   240554   
       12  | 53:27.30 |  6:07.14 |    240555    |   268093   


Track  1

     Filename D:\tdhcollection\Le Quyen - Tinh Khuc Yeu Thuong {Viet Tan} (2012) [FLAC] {MFt}\01 - Xa Roi Mua Dong {Nguyen Nam}.wav

     Pre-gap length  0:00:02.00

     Peak level 96.6 %
     Extraction speed 51.4 X
     Track quality 99.9 %
     Test CRC 99625264
     Copy CRC 99625264
     Track not present in AccurateRip database
     Copy OK

Track  2

     Filename D:\tdhcollection\Le Quyen - Tinh Khuc Yeu Thuong {Viet Tan} (2012) [FLAC] {MFt}\02 - Da Khuc {Quoc Bao}.wav

     Peak level 97.1 %
     Extraction speed 56.0 X
     Track quality 100.0 %
     Test CRC 44AF7761
     Copy CRC 44AF7761
     Track not present in AccurateRip database
     Copy OK

Track  3

     Filename D:\tdhcollection\Le Quyen - Tinh Khuc Yeu Thuong {Viet Tan} (2012) [FLAC] {MFt}\03 - Bien Can {Kim Tuan}.wav

     Peak level 96.1 %
     Extraction speed 56.9 X
     Track quality 100.0 %
     Test CRC 72B41410
     Copy CRC 72B41410
     Track not present in AccurateRip database
     Copy OK

Track  4

     Filename D:\tdhcollection\Le Quyen - Tinh Khuc Yeu Thuong {Viet Tan} (2012) [FLAC] {MFt}\04 - Em Se Nho Mai {Duc Tri}.wav

     Peak level 98.8 %
     Extraction speed 57.7 X
     Track quality 100.0 %
     Test CRC 23150B91
     Copy CRC 23150B91
     Track not present in AccurateRip database
     Copy OK

Track  5

     Filename D:\tdhcollection\Le Quyen - Tinh Khuc Yeu Thuong {Viet Tan} (2012) [FLAC] {MFt}\05 - Lang Dang Chieu Dong Ha Noi {Phu Quang}.wav

     Peak level 96.2 %
     Extraction speed 56.5 X
     Track quality 100.0 %
     Test CRC AC54E0A3
     Copy CRC AC54E0A3
     Track not present in AccurateRip database
     Copy OK

Track  6

     Filename D:\tdhcollection\Le Quyen - Tinh Khuc Yeu Thuong {Viet Tan} (2012) [FLAC] {MFt}\06 - Con Tim Tan Vo {Nguyen Duy An}.wav

     Peak level 96.8 %
     Extraction speed 57.4 X
     Track quality 100.0 %
     Test CRC FAB76AAD
     Copy CRC FAB76AAD
     Track not present in AccurateRip database
     Copy OK

Track  7

     Filename D:\tdhcollection\Le Quyen - Tinh Khuc Yeu Thuong {Viet Tan} (2012) [FLAC] {MFt}\07 - Hoa Sua {Hong Dang}.wav

     Peak level 97.2 %
     Extraction speed 56.1 X
     Track quality 100.0 %
     Test CRC 66164A24
     Copy CRC 66164A24
     Track not present in AccurateRip database
     Copy OK

Track  8

     Filename D:\tdhcollection\Le Quyen - Tinh Khuc Yeu Thuong {Viet Tan} (2012) [FLAC] {MFt}\08 - Yeu Thuong Mong Manh {Duc Tri}.wav

     Peak level 100.0 %
     Extraction speed 53.6 X
     Track quality 100.0 %
     Test CRC 7C6356D4
     Copy CRC 7C6356D4
     Track not present in AccurateRip database
     Copy OK

Track  9

     Filename D:\tdhcollection\Le Quyen - Tinh Khuc Yeu Thuong {Viet Tan} (2012) [FLAC] {MFt}\09 - Ben Em La Bien Rong {Bao Chan}.wav

     Peak level 96.5 %
     Extraction speed 56.5 X
     Track quality 100.0 %
     Test CRC D38FE8F6
     Copy CRC D38FE8F6
     Track not present in AccurateRip database
     Copy OK

Track 10

     Filename D:\tdhcollection\Le Quyen - Tinh Khuc Yeu Thuong {Viet Tan} (2012) [FLAC] {MFt}\10 - Hiu Hat Doi Nhau {Le Vu}.wav

     Peak level 96.6 %
     Extraction speed 56.0 X
     Track quality 100.0 %
     Test CRC 004CC262
     Copy CRC 004CC262
     Track not present in AccurateRip database
     Copy OK

Track 11

     Filename D:\tdhcollection\Le Quyen - Tinh Khuc Yeu Thuong {Viet Tan} (2012) [FLAC] {MFt}\11 - Chia Tay Tinh Dau {Nguyen Ngoc Thien}.wav

     Peak level 97.1 %
     Extraction speed 56.8 X
     Track quality 100.0 %
     Test CRC 1E9342D0
     Copy CRC 1E9342D0
     Track not present in AccurateRip database
     Copy OK

Track 12

     Filename D:\tdhcollection\Le Quyen - Tinh Khuc Yeu Thuong {Viet Tan} (2012) [FLAC] {MFt}\12 - Anh Sang Doi Toi {Minh Chau}.wav

     Peak level 97.9 %
     Extraction speed 53.9 X
     Track quality 99.9 %
     Test CRC A50EB98F
     Copy CRC A50EB98F
     Track not present in AccurateRip database
     Copy OK


None of the tracks are present in the AccurateRip database

No errors occurred

End of status report

---- CUETools DB Plugin V2.1.3

[CTDB TOCID: kbGQ8Ti5B5LyDhHEOz3sslIEERk-] disk not present in database, Submit result: database access error: The request was aborted: The request was canceled.


==== Log checksum C84AC3250D20685FC2FDF65A9FFD5871D653AFC0F25276B0CBD41E8D99F01F77 ====
:tracklist:
   1. Le Quyen - Xa Roi Mua Dong {Nguyen Nam}                 [04:08]
   2. Le Quyen - Da Khuc {Quoc Bao}                           [04:13]
   3. Le Quyen - Bien Can {Kim Tuan}                          [04:52]
   4. Le Quyen - Em Se Nho Mai {Duc Tri}                      [05:32]
   5. Le Quyen - Lang Dang Chieu Dong Ha Noi {Phu Quang}      [05:14]
   6. Le Quyen - Con Tim Tan Vo {Nguyen Duy An}               [05:10]
   7. Le Quyen - Hoa Sua {Hong Dang}                          [04:22]
   8. Le Quyen - Yeu Thuong Mong Manh {Duc Tri}               [06:09]
   9. Le Quyen - Ben Em La Bien Rong {Bao Chan}               [04:15]
  10. Le Quyen - Hiu Hat Doi Nhau {Le Vu}                     [04:34]
  11. Le Quyen - Chia Tay Tinh Dau {Nguyen Ngoc Thien}        [04:54]
  12. Le Quyen - Anh Sang Doi Toi {Minh Chau}                 [06:07]
:dl:
1 link - 5% Recovery record

Sau khi download về các bạn đổi tên file từ .fhd sang .rar rồi giải nén bình thường.
Các bạn chỉ cần download file
.rev khi có part bị lỗi hoặc link die. Chi tiết về file .rev các bạn có thể xem tại đây.

:mega:
Private Link:
PRIVATE CONTENT
This content for backup only. You can view public links below post to download


Public Link:
Hidden Content by Post
You need at least 1 post to view links.

:pw:
freehd.vn
:uploader:
tearofthesun@freehd.vn

Vợ là tài sản đầu tư sinh lời lớn nhất của người đàn ông.


#2 Offline ytclm0329 - Posted 28 August 2013 - 08:11 AM

ytclm0329

    Cạp văn L

  • Supporter
  • 9,497 posts
  • 2,328 topics
  • LocationFreeHD.vn
16,868
Someone Ban Him
  
Public link
:mega:
Hidden Content by Post
You need at least 1 post to view links.





0 user(s) are reading this topic

0 members, 0 guests, 0 anonymous users