Jump to content

  •  

Search Form

Sorry, nothing found in database
Total results: , Page of
>
<


Photo
MULTI

Lệ Quyên - Dòng Thời Gian (2013) [FLAC] {DVHuy} {Log 90}

Lệ Quyên 2013 FLAC DVHuy Log tearofthesun


  • You cannot start a new topic
  • Please log in to reply
13 replies to this topic

#1 Offline tearofthesun - Posted 11 September 2013 - 03:09 AM

tearofthesun

    (。◕‿‿◕。)

  • Super Moderator
  • 5,652 posts
  • 2,645 topics
  • LocationHeaven
8,719
Godlike

*
FAVORITE POST

Lệ Quyên - Dòng Thời Gian (2013) [FLAC] {DVHuy} {Log 90}

ib2CGxVvkShlID.jpg


ibiafpFmG3XreZ.jpg


izv85Xx60jg6W.jpg


:info:

Log Checked by WhatCD's Logchecker:

Score: 90 (out of 100)

The following properties decreased the score:

AccurateRip not enabled for every track, -10 points [10]


ALBUM.................: Dòng Thời Gian
ARTIST................: Lệ Quyên
LABEL.................: Viết Tân Studio
GENRE.................: Folk
SOURCE................: CD Image
YEAR..................: 2013
LANGUAGE..............: Vietnamese
DURATION..............: 1h:01m:09s
ENCODER...............: FLAC
QUALITY...............: 893 Kbps avg/ 44.1kHz/ Joint-Stereo
DATE..................: 10/09/2013
COVER.................: Front, Back, CD, Inside
RIPPER................: DVHuy
Exact Audio Copy V1.0 beta 3 from 29. August 2011

EAC extraction logfile from 10. September 2013, 21:33

Le Quyen / Dong Thoi Gian

Used drive  : DTSOFT  BDROM   Adapter: 1  ID: 0

Read mode               : Secure
Utilize accurate stream : Yes
Defeat audio cache      : Yes
Make use of C2 pointers : No

Read offset correction                      : 664
Overread into Lead-In and Lead-Out          : No
Fill up missing offset samples with silence : Yes
Delete leading and trailing silent blocks   : No
Null samples used in CRC calculations       : Yes
Used interface                              : Native Win32 interface for Win NT & 2000
Gap handling                                : Appended to previous track

Used output format              : User Defined Encoder
Selected bitrate                : 1024 kBit/s
Quality                         : High
Add ID3 tag                     : No
Command line compressor         : C:\Program Files\Exact Audio Copy\Flac\flac.exe
Additional command line options : -8 -V -T "ARTIST=%artist%" -T "TITLE=%title%" -T "ALBUM=%albumtitle%" -T "DATE=%year%" -T "TRACKNUMBER=%tracknr%" -T "GENRE=%genre%" -T "PERFORMER=%albuminterpret%" -T "COMPOSER=%composer%" %haslyrics%--tag-from-file=LYRICS="%lyricsfile%"%haslyrics% -T "ALBUMARTIST=%albumartist%" -T "ALBUM ARTIST=%albumartist%" -T "DISCNUMBER=%cdnumber%" -T "TOTALDISCS=%totalcds%" -T "TOTALTRACKS=%numtracks%" -T "COMMENT=Doan Van Huy, Secure Mode, Test & Copy, AccurateRip, FLAC -8" %source% -o %dest%


TOC of the extracted CD

     Track |   Start  |  Length  | Start sector | End sector 
    ---------------------------------------------------------
        1  |  0:00.00 |  5:06.39 |         0    |    22988   
        2  |  5:06.39 |  4:45.54 |     22989    |    44417   
        3  |  9:52.18 |  4:03.28 |     44418    |    62670   
        4  | 13:55.46 |  4:42.29 |     62671    |    83849   
        5  | 18:38.00 |  4:52.27 |     83850    |   105776   
        6  | 23:30.27 |  7:07.07 |    105777    |   137808   
        7  | 30:37.34 |  3:51.02 |    137809    |   155135   
        8  | 34:28.36 |  5:27.62 |    155136    |   179722   
        9  | 39:56.23 |  4:44.50 |    179723    |   201072   
       10  | 44:40.73 |  6:29.35 |    201073    |   230282   
       11  | 51:10.33 |  5:30.65 |    230283    |   255097   
       12  | 56:41.23 |  4:27.19 |    255098    |   275141   


Track  1

     Filename E:\TONG HOP NHAC\Le Quyen - Dong Thoi Gian (2013) [FLAC] {DVHuy}\01 - Ban Tinh Cuoi (Ngo Thuy Mien).wav

     Pre-gap length  0:00:02.00

     Peak level 96.3 %
     Extraction speed 23.4 X
     Track quality 100.0 %
     Test CRC A8AF9D2D
     Copy CRC A8AF9D2D
     Copy OK

Track  2

     Filename E:\TONG HOP NHAC\Le Quyen - Dong Thoi Gian (2013) [FLAC] {DVHuy}\02 - Dau Tinh Sau (Ngo Thuy Mien).wav

     Peak level 96.7 %
     Extraction speed 23.6 X
     Track quality 100.0 %
     Test CRC 4A1B5ADF
     Copy CRC 4A1B5ADF
     Copy OK

Track  3

     Filename E:\TONG HOP NHAC\Le Quyen - Dong Thoi Gian (2013) [FLAC] {DVHuy}\03 - Mat Biec (Ngo Thuy Mien).wav

     Peak level 97.5 %
     Extraction speed 12.4 X
     Track quality 99.9 %
     Test CRC D0498DDD
     Copy CRC D0498DDD
     Copy OK

Track  4

     Filename E:\TONG HOP NHAC\Le Quyen - Dong Thoi Gian (2013) [FLAC] {DVHuy}\04 - Mot Minh (Lam Phuong).wav

     Peak level 97.9 %
     Extraction speed 36.3 X
     Track quality 100.0 %
     Test CRC 7FC8625E
     Copy CRC 7FC8625E
     Copy OK

Track  5

     Filename E:\TONG HOP NHAC\Le Quyen - Dong Thoi Gian (2013) [FLAC] {DVHuy}\05 - Xom Dem (Pham Dinh Chuong).wav

     Peak level 97.4 %
     Extraction speed 25.0 X
     Track quality 100.0 %
     Test CRC FDBE0307
     Copy CRC FDBE0307
     Copy OK

Track  6

     Filename E:\TONG HOP NHAC\Le Quyen - Dong Thoi Gian (2013) [FLAC] {DVHuy}\06 - Dem Dong (Nguyen Van Thuong).wav

     Peak level 98.7 %
     Extraction speed 33.6 X
     Track quality 100.0 %
     Test CRC C7D237D3
     Copy CRC C7D237D3
     Copy OK

Track  7

     Filename E:\TONG HOP NHAC\Le Quyen - Dong Thoi Gian (2013) [FLAC] {DVHuy}\07 - Thu Ca (Pham Manh Cuong).wav

     Peak level 96.2 %
     Extraction speed 32.8 X
     Track quality 100.0 %
     Test CRC 5C4D3860
     Copy CRC 5C4D3860
     Copy OK

Track  8

     Filename E:\TONG HOP NHAC\Le Quyen - Dong Thoi Gian (2013) [FLAC] {DVHuy}\08 - Co Don (Nguyen Anh 9).wav

     Peak level 97.2 %
     Extraction speed 41.7 X
     Track quality 100.0 %
     Test CRC 55A7472F
     Copy CRC 55A7472F
     Copy OK

Track  9

     Filename E:\TONG HOP NHAC\Le Quyen - Dong Thoi Gian (2013) [FLAC] {DVHuy}\09 - Xin Con Goi Ten Nhau (Truong Xa).wav

     Peak level 98.7 %
     Extraction speed 39.7 X
     Track quality 100.0 %
     Test CRC 26927380
     Copy CRC 26927380
     Copy OK

Track 10

     Filename E:\TONG HOP NHAC\Le Quyen - Dong Thoi Gian (2013) [FLAC] {DVHuy}\10 - Niem Khuc Cuoi (Ngo Thuy Mien).wav

     Peak level 96.3 %
     Extraction speed 39.5 X
     Track quality 100.0 %
     Test CRC 5FCD5364
     Copy CRC 5FCD5364
     Copy OK

Track 11

     Filename E:\TONG HOP NHAC\Le Quyen - Dong Thoi Gian (2013) [FLAC] {DVHuy}\11 - Du Am (Nguyen Van Ty).wav

     Peak level 98.7 %
     Extraction speed 39.5 X
     Track quality 100.0 %
     Test CRC 32E44F05
     Copy CRC 32E44F05
     Copy OK

Track 12

     Filename E:\TONG HOP NHAC\Le Quyen - Dong Thoi Gian (2013) [FLAC] {DVHuy}\12 - Nua Hon Thuong Dau (Pham Dinh Chuong).wav

     Peak level 97.0 %
     Extraction speed 13.7 X
     Track quality 99.9 %
     Test CRC 7826D053
     Copy CRC 7826D053
     Copy OK

No errors occurred

End of status report

==== Log checksum C4DA211AD7CDBFDA805DF060081C1371C2D263F4577D2A1E74D8CB0C1FDFE025 ====
:tracklist:

01. Ban Tinh Cuoi (Ngo Thuy Mien)
02. Dau Tinh Sau (Ngo Thuy Mien)
03. Mat Biec (Ngo Thuy Mien)
04. Mot Minh (Lam Phuong)
05. Xom Dem (Pham Dinh Chuong)
06. Dem Dong (Nguyen Van Thuong)
07. Thu Ca (Pham Manh Cuong)
08. Co Don (Nguyen Anh 9)
09. Xin Con Goi Ten Nhau (Truong Xa)
10. Niem Khuc Cuoi (Ngo Thuy Mien)
11. Du Am (Nguyen Van Ty)
12. Nua Hon Thuong Dau (Pham Dinh Chuong)
:dl:
1 link - 5% Recovery record

Sau khi download về các bạn đổi tên file từ .fhd sang .rar rồi giải nén bình thường.
Các bạn chỉ cần download file
.rev khi có part bị lỗi hoặc link die. Chi tiết về file .rev các bạn có thể xem tại đây.

:upfile:
Upload by quocvuong_vn2004

http://www.fshare.vn/folder/EBJ5P074AT/
:fs:
Upload by quocvuong_vn2004

http://www.fshare.vn/folder/EBJ5P074AT/
:mega:
Private Link:
PRIVATE CONTENT
This content for backup only. You can view public links below post to download


Public Link:
Hidden Content by Post
You need at least 1 post to view links.

:pw:
freehd.vn
:uploader:
tearofthesun@freehd.vn

Edited by tearofthesun, 11 September 2013 - 09:42 AM.

Vợ là tài sản đầu tư sinh lời lớn nhất của người đàn ông.


#2 Offline Roronoa Zoro - Posted 11 September 2013 - 03:19 AM

Roronoa Zoro

    Advanced Member

  • Donator
  • 106 posts
  • 45 topics
189
Good
Public Link:
Hidden Content by Post
You need at least 1 post to view links.


#3 Offline quocvuong_vn2004 - Posted 11 September 2013 - 05:05 AM

quocvuong_vn2004

    Advanced Member

  • Old Staff
  • 307 posts
  • 164 topics
1,096
Excellent

Hàng nóng thanks...

Rất thích Lệ Quyên.Thêm CD này thì mình có đủ bộ tính đến thời điểm các CD phát hành.

 

 

1 link - 5% Recovery record

Link Fshare:

http://www.fshare.vn/folder/EBJ5P074AT/

Upfile:

http://upfile.vn/mta0


#4 Offline dk0705 - Posted 11 September 2013 - 08:19 AM

dk0705

    Cùi nhất FHD

  • Super Moderator
  • 5,165 posts
  • 1,146 topics
9,775
Godlike

Vãi Huỷ rip bằng đĩa ảo :vkl:



#5 Offline tearofthesun - Posted 11 September 2013 - 09:39 AM

tearofthesun

    (。◕‿‿◕。)

  • Super Moderator
  • 5,652 posts
  • 2,645 topics
  • LocationHeaven
8,719
Godlike

Vãi Huỷ rip bằng đĩa ảo :vkl:


Vãi hủy mà :chuan:
Vợ là tài sản đầu tư sinh lời lớn nhất của người đàn ông.


#6 Offline vuacna - Posted 11 September 2013 - 08:31 PM

vuacna

    Newbie

  • Members
  • 2 posts
  • 0 topics
0
Neutral

Rip bằng đĩa ảo là ntn mấy bác  ? :tuky:



#7 Offline demlanhlung - Posted 11 September 2013 - 09:26 PM

demlanhlung

    Soundwave

  • Moderators
  • 5,721 posts
  • 2,469 topics
  • LocationHell
18,237
Someone Ban Him
Vãi Hủy rip à :supick:
<p><span style="color:#000000;"><span style="font-size:18px;"><strong>“You will never reach your destination if you stop and throw stones at every dog that barks.”― Winston Churchill</strong></span></span>

#8 Offline patech - Posted 04 October 2013 - 10:45 AM

patech

    Newbie

  • Members
  • 1 posts
  • 0 topics
0
Neutral

Thanks bác

 



#9 Offline duykhanh87 - Posted 27 November 2013 - 08:08 PM

duykhanh87

    Newbie

  • Members
  • 1 posts
  • 0 topics
0
Neutral

thanks bác, album rất hay



#10 Offline NTN - Posted 28 November 2013 - 12:17 PM

NTN

    Newbie

  • Members
  • 1 posts
  • 0 topics
0
Neutral

Thank , album nghe nhẹ tai : D



#11 Offline saigonkiwi - Posted 18 December 2013 - 09:29 PM

saigonkiwi

    Newbie

  • Members
  • 5 posts
  • 0 topics
0
Neutral

thanks chủ thớt :)



#12 Offline hwanganhtam - Posted 20 December 2013 - 01:42 PM

hwanganhtam

    Newbie

  • Members
  • 3 posts
  • 0 topics
0
Neutral

thanks a lot



#13 Offline hekehi - Posted 27 December 2013 - 10:42 AM

hekehi

    Newbie

  • Members
  • 1 posts
  • 0 topics
0
Neutral

cảm ơn bạn nhiều



#14 Offline Mr.Khidot - Posted 27 December 2013 - 12:17 PM

Mr.Khidot

    Member

  • Members
  • 18 posts
  • 2 topics
8
Neutral

Ngon. Mình cũng có full bộ FHD úp :))






0 user(s) are reading this topic

0 members, 0 guests, 0 anonymous users