Jump to content

  •  

Search Form

Sorry, nothing found in database
Total results: , Page of
>
<


Photo
Mega

Lệ Quyên - Con Tim Dại Khờ (Vol.05) (2013) [FLAC] {Log 90}

Lệ Quyên 2013 FLAC Log tearofthesun


  • You cannot start a new topic
  • Please log in to reply
11 replies to this topic

#1 Offline tearofthesun - Posted 17 September 2013 - 01:41 PM

tearofthesun

    (。◕‿‿◕。)

  • Super Moderator
  • 5,340 posts
  • 2,527 topics
  • LocationHeaven
8,102
Godlike

*
FAVORITE POST

Lệ Quyên - Con Tim Dại Khờ (Vol.05) (2013) [FLAC] {Log 90}

in1mdhkhGW10m.jpg


iFwMvRt9ommBs.jpg


:info:

Log Checked by WhatCD's Logchecker:

Score: 90 (out of 100)

The following properties decreased the score:

AccurateRip not enabled for every track, -10 points [10]



Artist.......................: Lệ Quyên
Album........................: Con Tim Dại Khờ (Vol.05) (2013) [FLAC]
Genre........................: Nhạc Trữ Tình
Release Year.................: 2013
Label........................: VIETTAN
Source.......................: CD

Format.......................: Free Lossless Audio Codec (FLAC)
Ripper.......................: Exact Audio Copy 1.0 Beta 2
Covers.......................: All Scans at 300 dpi
Included.....................: M3U, CUE, LOG (100% Securely Ripped & Accurately Ripped)
Ripped by....................: C2D
Exact Audio Copy V1.0 beta 2 from 29. April 2011

EAC extraction logfile from 17. September 2013, 9:17

Le Quyen / Con Tim Dai Kho

Used drive  : ULK     SL2ZGTI70HMZ   Adapter: 4  ID: 0

Read mode               : Secure
Utilize accurate stream : Yes
Defeat audio cache      : Yes
Make use of C2 pointers : No

Read offset correction                      : 6
Overread into Lead-In and Lead-Out          : No
Fill up missing offset samples with silence : Yes
Delete leading and trailing silent blocks   : No
Null samples used in CRC calculations       : Yes
Used interface                              : Native Win32 interface for Win NT & 2000
Gap handling                                : Appended to previous track

Used output format              : User Defined Encoder
Selected bitrate                : 1024 kBit/s
Quality                         : High
Add ID3 tag                     : No
Command line compressor         : C:\Program Files\Exact Audio Copy\Flac\flac.exe
Additional command line options : -8 -V -T "ARTIST=%artist%" -T "TITLE=%title%" -T "ALBUM=%albumtitle%" -T "DATE=%year%" -T "TRACKNUMBER=%tracknr%" -T "GENRE=%genre%" -T "PERFORMER=%albuminterpret%" -T "COMPOSER=%composer%" %haslyrics%--tag-from-file=LYRICS


TOC of the extracted CD

     Track |   Start  |  Length  | Start sector | End sector 
    ---------------------------------------------------------
        1  |  0:00.00 |  5:05.41 |         0    |    22915   
        2  |  5:05.41 |  6:05.21 |     22916    |    50311   
        3  | 11:10.62 |  5:17.68 |     50312    |    74154   
        4  | 16:28.55 |  5:44.62 |     74155    |   100016   
        5  | 22:13.42 |  4:29.08 |    100017    |   120199   
        6  | 26:42.50 |  4:30.25 |    120200    |   140474   
        7  | 31:13.00 |  5:21.29 |    140475    |   164578   
        8  | 36:34.29 |  3:51.24 |    164579    |   181927   


Track  1

     Filename E:\Am nhac\RIP\Le Quyen - Con Tim Dai Kho (2013) [FLAC]\01 - Con Tim Dai Kho.wav

     Pre-gap length  0:00:02.00

     Peak level 96.9 %
     Extraction speed 90.3 X
     Track quality 100.0 %
     Test CRC 9721EA47
     Copy CRC 9721EA47
     Copy OK

Track  2

     Filename E:\Am nhac\RIP\Le Quyen - Con Tim Dai Kho (2013) [FLAC]\02 - Qua Muon Mang.wav

     Peak level 98.0 %
     Extraction speed 86.7 X
     Track quality 100.0 %
     Test CRC 1C06DEB4
     Copy CRC 1C06DEB4
     Copy OK

Track  3

     Filename E:\Am nhac\RIP\Le Quyen - Con Tim Dai Kho (2013) [FLAC]\03 - Neu Em Duoc Chon Lua.wav

     Peak level 97.1 %
     Extraction speed 85.7 X
     Track quality 100.0 %
     Test CRC 69E7FCDC
     Copy CRC 69E7FCDC
     Copy OK

Track  4

     Filename E:\Am nhac\RIP\Le Quyen - Con Tim Dai Kho (2013) [FLAC]\04 - Nguoi Tinh.wav

     Peak level 97.9 %
     Extraction speed 87.3 X
     Track quality 100.0 %
     Test CRC 03D55F50
     Copy CRC 03D55F50
     Copy OK

Track  5

     Filename E:\Am nhac\RIP\Le Quyen - Con Tim Dai Kho (2013) [FLAC]\05 - Ta Da Tung Yeu.wav

     Peak level 100.0 %
     Extraction speed 88.2 X
     Track quality 100.0 %
     Test CRC B3241F40
     Copy CRC B3241F40
     Copy OK

Track  6

     Filename E:\Am nhac\RIP\Le Quyen - Con Tim Dai Kho (2013) [FLAC]\06 - Yeu Thuong Gio La Qua Khu.wav

     Peak level 98.2 %
     Extraction speed 85.2 X
     Track quality 100.0 %
     Test CRC 79228EEF
     Copy CRC 79228EEF
     Copy OK

Track  7

     Filename E:\Am nhac\RIP\Le Quyen - Con Tim Dai Kho (2013) [FLAC]\07 - Giay Phut Cuoi.wav

     Peak level 97.7 %
     Extraction speed 82.2 X
     Track quality 99.9 %
     Test CRC CCF815B2
     Copy CRC CCF815B2
     Copy OK

Track  8

     Filename E:\Am nhac\RIP\Le Quyen - Con Tim Dai Kho (2013) [FLAC]\08 - Chon Dau Mot Tinh Yeu.wav

     Peak level 98.8 %
     Extraction speed 88.4 X
     Track quality 100.0 %
     Test CRC 32109352
     Copy CRC 32109352
     Copy OK

No errors occurred

End of status report

==== Log checksum 165C94CBB93699E878E17BDE63077DE2B21AB2E0FF8ACDF4CE8CA389C6315BB5 ====
:tracklist:
01. Con Tim Dại Khờ
02. Quá Muộn Màng
03. Nếu Em Được Chọn Lựa
04. Người Tình
05. Ta Đã Từng Yêu
06. Yêu Thương Giờ Là Quá Khứ
07. Giây Phút Cuối
08. Chôn Dấu Một Tình Yêu

Bonus Tracks Video Clip:
09. Con Tim Dại Khờ
10. Quá Muộn Màng
:dl:
1 link - 5% Recovery record

Sau khi download về các bạn đổi tên file từ .fhd sang .rar rồi giải nén bình thường.
Các bạn chỉ cần download file
.rev khi có part bị lỗi hoặc link die. Chi tiết về file .rev các bạn có thể xem tại đây.

:mega:
Private Link:
PRIVATE CONTENT
This content for backup only. You can view public links below post to download


Public Link:
Hidden Content by Post
You need at least 1 post to view links.

:pw:
freehd.vn
:uploader:
tearofthesun@freehd.vn

Vợ là tài sản đầu tư sinh lời lớn nhất của người đàn ông.

Spoiler
Bộ sưu tập phim của tôi :D
ibn7dD18qYFTXm.jpg


#2 Offline chimsun - Posted 17 September 2013 - 01:55 PM

chimsun

    Sony Ericsson C901 Mocha Gold

  • Old Staff
  • 692 posts
  • 13 topics
  • LocationFox River State
2,483
Incredible

:mega:

Public

Hidden Content by Post
You need at least 1 post to view links.


2tFZ9an.jpg


#3 Offline quanghao7689 - Posted 20 September 2013 - 12:18 AM

quanghao7689

    Newbie

  • Members
  • 1 posts
  • 0 topics
0
Neutral

Thanks chủ thớt ! Lệ Quyên là thần tượng của em.



#4 Offline Hoang Minh - Posted 23 September 2013 - 12:37 AM

Hoang Minh

    Newbie

  • Members
  • 1 posts
  • 0 topics
0
Neutral

Thanks chủ thớt ! Lệ Quyên là thần tượng của em.

 

Lệ Quyện nhạc cũ nhạc mớicũng được số ít bài chứ không nhiều :D


Edited by Hoang Minh, 23 September 2013 - 12:38 AM.


#5 Offline toto1981 - Posted 26 September 2013 - 02:53 PM

toto1981

    Newbie

  • Members
  • 2 posts
  • 0 topics
0
Neutral

Cam on chu thot



#6 Offline quangkhoidoan - Posted 26 September 2013 - 10:56 PM

quangkhoidoan

    Newbie

  • Members
  • 1 posts
  • 0 topics
0
Neutral

Thank you



#7 Offline phoenix279 - Posted 27 September 2013 - 02:00 PM

phoenix279

    Newbie

  • Members
  • 1 posts
  • 0 topics
0
Neutral

Cám ơn bạn rất nhiều, mình rất thích album này :D



#8 Offline trandthuc - Posted 27 September 2013 - 10:21 PM

trandthuc

    Newbie

  • Members
  • 1 posts
  • 0 topics
0
Neutral

Cảm ơn nhé :)



#9 Offline Vu Phan - Posted 12 October 2013 - 12:31 PM

Vu Phan

    Newbie

  • Members
  • 1 posts
  • 0 topics
0
Neutral

Thanks bác chủ thớt



#10 Offline huyhungvu90 - Posted 09 November 2013 - 09:53 AM

huyhungvu90

    Newbie

  • Members
  • 1 posts
  • 0 topics
0
Neutral

tks thớt :3



#11 Offline ms_ngocmai - Posted 26 December 2013 - 04:13 PM

ms_ngocmai

    Newbie

  • Members
  • 1 posts
  • 0 topics
0
Neutral

Thanks chủ thớt nhe.



#12 Offline tornado - Posted 02 January 2014 - 08:28 AM

tornado

    Newbie

  • Members
  • 2 posts
  • 0 topics
0
Neutral

Cam on nhieu






0 user(s) are reading this topic

0 members, 0 guests, 0 anonymous users