Jump to content

  •  

Search Form

Sorry, nothing found in database
Total results: , Page of
>
<


Photo
Mega

Dam Vinh Hung - Chiec Vong Cau Hon (2013) [FLAC] {HQM} {Log 100}

Dam Vinh Hung Đàm Vĩnh Hưng 2013 FLAC HQM Log100 tearofthesun


  • You cannot start a new topic
  • Please log in to reply
8 replies to this topic

#1 Offline tearofthesun - Posted 08 November 2013 - 07:13 PM

tearofthesun

    (。◕‿‿◕。)

  • Super Moderator
  • 5,664 posts
  • 2,646 topics
  • LocationHeaven
8,759
Godlike

Đàm Vĩnh Hưng - Chiếc Vòng Cầu Hôn (2013) [FLAC] {HQM} {Log 100}

ibrKGUqR9TCFNu.jpg


:info:

Log Checked by WhatCD's Logchecker:

Score: 100 (out of 100)


Artist................: Đàm Vĩnh Hưng
Album.................: Chiếc Vòng Cầu Hôn (2000) [FLAC] {HQM}
Genre.................: Nhạc Trữ Tình, Nhạc Đỏ
Release Year..........: 2013
Label.................: ℗ 2013 Tiếng Hát Việt
Source................: CD

Format................: Free Lossless Audio Codec (FLAC)
Ripper................: Exact Audio Copy 1.0 Beta 2
Covers................: All Scans at 600 dpi
Included..............: M3U, CUE, LOG (100% Securely Ripped & Accurately Ripped)
Ripped by.............: C2D@tracker.hqmusic.vn
Exact Audio Copy V1.0 beta 2 from 29. April 2011

EAC extraction logfile from 2. November 2013, 12:04

Dam Vinh Hung / Chiec Vong Cau Hon

Used drive  : PIONEER DVD-RW  DVR-218L   Adapter: 1  ID: 0

Read mode               : Secure
Utilize accurate stream : Yes
Defeat audio cache      : Yes
Make use of C2 pointers : No

Read offset correction                      : 6
Overread into Lead-In and Lead-Out          : No
Fill up missing offset samples with silence : Yes
Delete leading and trailing silent blocks   : No
Null samples used in CRC calculations       : Yes
Used interface                              : Native Win32 interface for Win NT & 2000
Gap handling                                : Appended to previous track

Used output format              : User Defined Encoder
Selected bitrate                : 1024 kBit/s
Quality                         : High
Add ID3 tag                     : No
Command line compressor         : C:\Program Files (x86)\Exact Audio Copy\Flac\flac.exe
Additional command line options : -8 -V -T "ARTIST=%artist%" -T "TITLE=%title%" -T "ALBUM=%albumtitle%" -T "DATE=%year%" -T "TRACKNUMBER=%tracknr%" -T "GENRE=%genre%" -T "PERFORMER=%albuminterpret%" -T "COMPOSER=%composer%" %haslyrics%--tag-from-file=LYRICS


TOC of the extracted CD

     Track |   Start  |  Length  | Start sector | End sector 
    ---------------------------------------------------------
        1  |  0:00.00 |  5:35.45 |         0    |    25169   
        2  |  5:35.45 |  3:37.42 |     25170    |    41486   
        3  |  9:13.12 |  5:00.08 |     41487    |    63994   
        4  | 14:13.20 |  5:19.62 |     63995    |    87981   
        5  | 19:33.07 |  4:07.39 |     87982    |   106545   
        6  | 23:40.46 |  3:27.42 |    106546    |   122112   
        7  | 27:08.13 |  3:34.42 |    122113    |   138204   
        8  | 30:42.55 |  3:54.27 |    138205    |   155781   
        9  | 34:37.07 |  5:03.71 |    155782    |   178577   
       10  | 39:41.03 |  4:42.65 |    178578    |   199792   
       11  | 44:23.68 |  3:56.62 |    199793    |   217554   
       12  | 48:20.55 |  2:52.54 |    217555    |   230508   


Track  1

     Filename E:\Am Nhac\HQM\Various Artists - Chiec Vong Cau Hon (2013) [FLAC] {HQM}\01 - Dam Vinh Hung - Chiec Vong Cau Hon.wav

     Pre-gap length  0:00:02.00

     Peak level 99.8 %
     Extraction speed 1.1 X
     Track quality 100.0 %
     Test CRC 5DA6CF31
     Copy CRC 5DA6CF31
     Track not present in AccurateRip database
     Copy OK

Track  2

     Filename E:\Am Nhac\HQM\Various Artists - Chiec Vong Cau Hon (2013) [FLAC] {HQM}\02 - Dam Vinh Hung - Ngay Mai Anh Len Duong.wav

     Peak level 99.3 %
     Extraction speed 1.2 X
     Track quality 100.0 %
     Test CRC 0DF772F7
     Copy CRC 0DF772F7
     Track not present in AccurateRip database
     Copy OK

Track  3

     Filename E:\Am Nhac\HQM\Various Artists - Chiec Vong Cau Hon (2013) [FLAC] {HQM}\03 - Dam Vinh Hung - Tinh Anh.wav

     Peak level 99.8 %
     Extraction speed 1.2 X
     Track quality 99.9 %
     Test CRC D00BE29F
     Copy CRC D00BE29F
     Track not present in AccurateRip database
     Copy OK

Track  4

     Filename E:\Am Nhac\HQM\Various Artists - Chiec Vong Cau Hon (2013) [FLAC] {HQM}\04 - Dam Vinh Hung - Vet Chan Tron Tren Cat.wav

     Peak level 99.8 %
     Extraction speed 1.5 X
     Track quality 100.0 %
     Test CRC D0AD1E88
     Copy CRC D0AD1E88
     Track not present in AccurateRip database
     Copy OK

Track  5

     Filename E:\Am Nhac\HQM\Various Artists - Chiec Vong Cau Hon (2013) [FLAC] {HQM}\05 - Dam Vinh Hung - Hat Ve Anh.wav

     Peak level 99.5 %
     Extraction speed 1.6 X
     Track quality 100.0 %
     Test CRC AB7563D9
     Copy CRC AB7563D9
     Track not present in AccurateRip database
     Copy OK

Track  6

     Filename E:\Am Nhac\HQM\Various Artists - Chiec Vong Cau Hon (2013) [FLAC] {HQM}\06 - Dam Vinh Hung - Anh Ba Hung.wav

     Peak level 99.8 %
     Extraction speed 1.6 X
     Track quality 100.0 %
     Test CRC CFA8BA93
     Copy CRC CFA8BA93
     Track not present in AccurateRip database
     Copy OK

Track  7

     Filename E:\Am Nhac\HQM\Various Artists - Chiec Vong Cau Hon (2013) [FLAC] {HQM}\07 - Dam Vinh Hung - Nguoi Me.wav

     Peak level 99.6 %
     Extraction speed 1.7 X
     Track quality 100.0 %
     Test CRC A82EFA52
     Copy CRC A82EFA52
     Track not present in AccurateRip database
     Copy OK

Track  8

     Filename E:\Am Nhac\HQM\Various Artists - Chiec Vong Cau Hon (2013) [FLAC] {HQM}\08 - Dam Vinh Hung - Doi Mat.wav

     Peak level 99.8 %
     Extraction speed 1.6 X
     Track quality 99.9 %
     Test CRC 65F1D29D
     Copy CRC 65F1D29D
     Track not present in AccurateRip database
     Copy OK

Track  9

     Filename E:\Am Nhac\HQM\Various Artists - Chiec Vong Cau Hon (2013) [FLAC] {HQM}\09 - Dam Vinh Hung Ft Cam Van - Rung Chieu.wav

     Peak level 99.7 %
     Extraction speed 1.9 X
     Track quality 100.0 %
     Test CRC 9B1434DF
     Copy CRC 9B1434DF
     Track not present in AccurateRip database
     Copy OK

Track 10

     Filename E:\Am Nhac\HQM\Various Artists - Chiec Vong Cau Hon (2013) [FLAC] {HQM}\10 - Dam Vinh Hung - Bai Ca Nho Bac.wav

     Peak level 87.9 %
     Extraction speed 1.8 X
     Track quality 99.9 %
     Test CRC 435C476B
     Copy CRC 435C476B
     Track not present in AccurateRip database
     Copy OK

Track 11

     Filename E:\Am Nhac\HQM\Various Artists - Chiec Vong Cau Hon (2013) [FLAC] {HQM}\11 - Dam Vinh Hung - Mua Xuan Tren Thanh Pho Ho Chi Minh.wav

     Peak level 99.4 %
     Extraction speed 2.0 X
     Track quality 100.0 %
     Test CRC 98A37418
     Copy CRC 98A37418
     Track not present in AccurateRip database
     Copy OK

Track 12

     Filename E:\Am Nhac\HQM\Various Artists - Chiec Vong Cau Hon (2013) [FLAC] {HQM}\12 - Dam Vinh Hung Ft Song Tu - Hay Dan Len.wav

     Peak level 99.8 %
     Extraction speed 2.0 X
     Track quality 100.0 %
     Test CRC CE9A258F
     Copy CRC CE9A258F
     Track not present in AccurateRip database
     Copy OK


None of the tracks are present in the AccurateRip database

No errors occurred

End of status report

==== Log checksum B9335F628DCA27308F988DF728E7CD6C2C72FB35C69642A0E65525256D4AE87A ====
:tracklist:
01. Chiếc Vòng Cầu Hôn (Trần Tiến)
02. Ngày Mai Anh Lên Đường (Thanh Trúc, Lê Giang)
03. Tình Anh (Tôn Thất Lập)
04. Vết Chân Tròn Trên Cát (Trần Tiến)
05. Hát Về Anh (Thế Hiển)
06. Anh Ba Hưng (Trần Kiết Tường)
07. Người Mẹ (Nguyễn Ngọc Thiện)
08. Đôi Mắt (Xuân Hồng)
09. Rừng Chiều (Vũ Thanh) [ft. Cẩm Vân]
10. Bài Ca Nhớ Bác (Xuân Quang)
11. Mùa Xuân Trên Thành Phố Hồ Chí Minh (Xuân Hồng)
12. Hãy Đàn Lên (Từ Huy) [ft. Song Tú]
:dl:
1 link - 5% Recovery record

Sau khi download về các bạn đổi tên file từ .fhd sang .rar rồi giải nén bình thường.
Các bạn chỉ cần download file
.rev khi có part bị lỗi hoặc link die. Chi tiết về file .rev các bạn có thể xem tại đây.

:mega:
Private Link:
PRIVATE CONTENT
This content for backup only. You can view public links below post to download


Public Link:
Hidden Content by Post
You need at least 1 post to view links.

:pw:
freehd.vn
:uploader:
tearofthesun@freehd.vn

Vợ là tài sản đầu tư sinh lời lớn nhất của người đàn ông.


#2 Offline ytclm0329 - Posted 08 November 2013 - 07:24 PM

ytclm0329

    Cạp văn L

  • Supporter
  • 9,656 posts
  • 2,416 topics
  • LocationFreeHD.vn
17,280
Someone Ban Him
  
Public link :capl:
:mega:
Hidden Content by Post
You need at least 1 post to view links.


#3 Offline kool9999 - Posted 09 November 2013 - 04:31 AM

kool9999

    Newbie

  • Members
  • 3 posts
  • 0 topics
0
Neutral

thanks



#4 Offline thanhtram.vnit - Posted 11 November 2013 - 10:34 AM

thanhtram.vnit

    Newbie

  • Members
  • 1 posts
  • 0 topics
0
Neutral

thanks



#5 Offline ductan73 - Posted 18 November 2013 - 07:55 PM

ductan73

    Newbie

  • Members
  • 3 posts
  • 0 topics
0
Neutral

Public link :capl:
:mega:

Hidden Content by Post
You need at least 1 post to view links.

 

rat hay thank!



#6 Offline ductan73 - Posted 18 November 2013 - 07:59 PM

ductan73

    Newbie

  • Members
  • 3 posts
  • 0 topics
0
Neutral

chan qua k tai dc



#7 Offline bibintam - Posted 18 December 2013 - 03:33 PM

bibintam

    Newbie

  • Members
  • 2 posts
  • 0 topics
0
Neutral

thanks nhìu nha



#8 Offline caycua - Posted 18 December 2013 - 09:04 PM

caycua

    Newbie

  • Members
  • 1 posts
  • 0 topics
0
Neutral

hay quá  đang tìm đây



#9 Offline asiantrung21 - Posted 18 January 2014 - 07:56 PM

asiantrung21

    Newbie

  • Members
  • 5 posts
  • 0 topics
0
Neutral

thank you for sharing






0 user(s) are reading this topic

0 members, 0 guests, 0 anonymous users