Jump to content

  •  

Search Form

Sorry, nothing found in database
Total results: , Page of
>
<


Photo
MULTI

Bích Phương - Chỉ Là Em Giấu Đi (2013) [FLAC] {Log 100}

Bích Phương 2013 FLAC Log100 tearofthesun


  • You cannot start a new topic
  • Please log in to reply
30 replies to this topic

#1 Offline tearofthesun - Posted 10 November 2013 - 09:31 PM

tearofthesun

    (。◕‿‿◕。)

  • Super Moderator
  • 5,664 posts
  • 2,646 topics
  • LocationHeaven
8,766
Godlike

*
FAVORITE POST

Bích Phương - Chỉ Là Em Giấu Đi (2013) [FLAC] {Log 100}

ibv18puqdba20E.jpg


:info:

Log Checked by WhatCD's Logchecker:

Score: 100 (out of 100)


=============================================
Artist:.... Bích Phương
Album:..... Chỉ Là Em Giấu Đi
Released:.. 2013
Label:..... Viettan
Format:.... 1×CD, Album
Genre:..... Pop, Ballad

=============================================
Ripper....: Exact Audio Copy V1.0 beta 3
Encoder...: FLAC 1.2.1
Covers....: No Artwork No Time
Included..: M3U, CUE, LOG
=============================================
Exact Audio Copy V1.0 beta 3 from 29. August 2011

EAC extraction logfile from 9. November 2013, 9:43

Bich Phuong / Chi La Em Giau Di

Used drive  : TSSTcorpCDDVDW TS-L633F   Adapter: 1  ID: 0

Read mode               : Secure
Utilize accurate stream : Yes
Defeat audio cache      : Yes
Make use of C2 pointers : No

Read offset correction                      : 6
Overread into Lead-In and Lead-Out          : No
Fill up missing offset samples with silence : Yes
Delete leading and trailing silent blocks   : No
Null samples used in CRC calculations       : Yes
Used interface                              : Native Win32 interface for Win NT & 2000
Gap handling                                : Appended to previous track

Used output format              : User Defined Encoder
Selected bitrate                : 128 kBit/s
Quality                         : High
Add ID3 tag                     : No
Command line compressor         : D:\T\Exact Audio Copy\Flac\flac.exe
Additional command line options : -8 -V -T "ARTIST=%artist%" -T "TITLE=%title%" -T "ALBUM=%albumtitle%" -T "DATE=%year%" -T "TRACKNUMBER=%tracknr%" -T "TOTALTRACKS=%numtracks%" -T "GENRE=%genre%" -T "ALBUM ARTIST=%albumartist%" -T "COMMENT=EAC V1.0 beta 3 Secure Mode, Test & Copy, AccurateRip, FLAC -8" %source%


TOC of the extracted CD

     Track |   Start  |  Length  | Start sector | End sector 
    ---------------------------------------------------------
        1  |  0:00.00 |  4:33.34 |         0    |    20508   
        2  |  4:33.34 |  5:20.73 |     20509    |    44581   
        3  |  9:54.32 |  3:43.74 |     44582    |    61380   
        4  | 13:38.31 |  5:13.10 |     61381    |    84865   
        5  | 18:51.41 |  4:10.22 |     84866    |   103637   
        6  | 23:01.63 |  4:30.13 |    103638    |   123900   
        7  | 27:32.01 |  4:22.43 |    123901    |   143593   
        8  | 31:54.44 |  4:52.44 |    143594    |   165537   
        9  | 36:47.13 |  5:38.50 |    165538    |   190937   
       10  | 42:25.63 |  4:25.30 |    190938    |   210842   
       11  | 46:51.18 |  4:27.52 |    210843    |   230919   
       12  | 51:18.70 |  4:37.70 |    230920    |   251764   


Track  1

     Filename E:\EACRips\Bich Phuong - Chi La Em Giau Di (2013) [FLAC]\01 - Chi La Em Giau Di.wav

     Pre-gap length  0:00:02.00

     Peak level 89.6 %
     Extraction speed 2.2 X
     Track quality 100.0 %
     Test CRC BBC8819A
     Copy CRC BBC8819A
     Track not present in AccurateRip database
     Copy OK

Track  2

     Filename E:\EACRips\Bich Phuong - Chi La Em Giau Di (2013) [FLAC]\02 - Neu Hanh Phuc Khong Phai Em.wav

     Peak level 100.0 %
     Extraction speed 2.6 X
     Track quality 100.0 %
     Test CRC FF34B114
     Copy CRC FF34B114
     Track not present in AccurateRip database
     Copy OK

Track  3

     Filename E:\EACRips\Bich Phuong - Chi La Em Giau Di (2013) [FLAC]\03 - Khoang Lang.wav

     Peak level 100.0 %
     Extraction speed 2.8 X
     Track quality 100.0 %
     Test CRC 4470097F
     Copy CRC 4470097F
     Track not present in AccurateRip database
     Copy OK

Track  4

     Filename E:\EACRips\Bich Phuong - Chi La Em Giau Di (2013) [FLAC]\04 - Mong Manh.wav

     Peak level 100.0 %
     Extraction speed 3.1 X
     Track quality 100.0 %
     Test CRC 93CCA2BB
     Copy CRC 93CCA2BB
     Track not present in AccurateRip database
     Copy OK

Track  5

     Filename E:\EACRips\Bich Phuong - Chi La Em Giau Di (2013) [FLAC]\05 - Em Khong Tin.wav

     Peak level 100.0 %
     Extraction speed 2.6 X
     Track quality 99.9 %
     Test CRC 5861033F
     Copy CRC 5861033F
     Track not present in AccurateRip database
     Copy OK

Track  6

     Filename E:\EACRips\Bich Phuong - Chi La Em Giau Di (2013) [FLAC]\06 - Ngay Gio Ngung Troi.wav

     Peak level 100.0 %
     Extraction speed 3.4 X
     Track quality 100.0 %
     Test CRC 0C89268A
     Copy CRC 0C89268A
     Track not present in AccurateRip database
     Copy OK

Track  7

     Filename E:\EACRips\Bich Phuong - Chi La Em Giau Di (2013) [FLAC]\07 - Minh Yeu Nhau De Lam Gi.wav

     Peak level 100.0 %
     Extraction speed 3.0 X
     Track quality 99.9 %
     Test CRC 402DDE82
     Copy CRC 402DDE82
     Track not present in AccurateRip database
     Copy OK

Track  8

     Filename E:\EACRips\Bich Phuong - Chi La Em Giau Di (2013) [FLAC]\08 - Em Khong Lam Duoc Dau.wav

     Peak level 100.0 %
     Extraction speed 3.8 X
     Track quality 100.0 %
     Test CRC F91AA989
     Copy CRC F91AA989
     Track not present in AccurateRip database
     Copy OK

Track  9

     Filename E:\EACRips\Bich Phuong - Chi La Em Giau Di (2013) [FLAC]\09 - Van.wav

     Peak level 100.0 %
     Extraction speed 4.1 X
     Track quality 100.0 %
     Test CRC 8D887020
     Copy CRC 8D887020
     Track not present in AccurateRip database
     Copy OK

Track 10

     Filename E:\EACRips\Bich Phuong - Chi La Em Giau Di (2013) [FLAC]\10 - Co Khi Nao Roi Xa.wav

     Peak level 97.9 %
     Extraction speed 4.2 X
     Track quality 100.0 %
     Test CRC E5B598E6
     Copy CRC E5B598E6
     Track not present in AccurateRip database
     Copy OK

Track 11

     Filename E:\EACRips\Bich Phuong - Chi La Em Giau Di (2013) [FLAC]\11 - Co Le Em.wav

     Peak level 98.3 %
     Extraction speed 4.3 X
     Track quality 100.0 %
     Test CRC 8CD3C682
     Copy CRC 8CD3C682
     Track not present in AccurateRip database
     Copy OK

Track 12

     Filename E:\EACRips\Bich Phuong - Chi La Em Giau Di (2013) [FLAC]\12 - Em Muon.wav

     Peak level 100.0 %
     Extraction speed 4.4 X
     Track quality 100.0 %
     Test CRC E87D07EF
     Copy CRC E87D07EF
     Track not present in AccurateRip database
     Copy OK


None of the tracks are present in the AccurateRip database

No errors occurred

End of status report

---- CUETools DB Plugin V2.1.3

[CTDB TOCID: hDpiFUDiv_WozaUX7CWK63qf6dc-] disk not present in database, Submit result: hDpiFUDiv_WozaUX7CWK63qf6dc- has been uploaded


==== Log checksum 2EAFAA82C9A0553BE1523C66F89015240BBE06B0993BDA5A2827C750DB74D0D5 ====
:tracklist:
01 - Chỉ Là Em Giấu Đi
02 - Nếu Hạnh Phúc Không Phải Em
03 - Khoảng Lặng
04 - Mong Manh
05 - Em Không Tin
06 - Ngày Gió Ngừng Trôi
07 - Mình Yêu Nhau Để Làm Gì
08 - Em Không Làm Được Đâu
09 - Vẫn
10 - Có Khi Nào Rời Xa
11 - Có Lẽ Em
12 - Em Muốn

:trailer:


:dl:
1 link - 5% Recovery record

Sau khi download về các bạn đổi tên file từ .fhd sang .rar rồi giải nén bình thường.
Các bạn chỉ cần download file
.rev khi có part bị lỗi hoặc link die. Chi tiết về file .rev các bạn có thể xem tại đây.

:tenlua:
http://tenlua.vn/bich-phuong-chi-la-em-giau-di-2013-flac-rar-0037e42de50d6c/#download0037e42de50d6c
:fs:
http://www.fshare.vn/file/T27FW6F9PT
:mega:
Private Link:
PRIVATE CONTENT
This content for backup only. You can view public links below post to download


Public Link:
Hidden Content by Post
You need at least 1 post to view links.

:pw:
freehd.vn
:uploader:
tearofthesun ft. Anh già đau khổ @freehd.vn

Edited by tearofthesun, 15 November 2013 - 02:15 PM.

Vợ là tài sản đầu tư sinh lời lớn nhất của người đàn ông.


#2 Offline Súnnie - Posted 11 November 2013 - 12:43 AM

Súnnie

    Tóc Tiên China Tình

  • Old Staff
  • 365 posts
  • 4 topics
  • LocationTp.HCM
1,200
Excellent
:sailam:
 
:mega:
Hidden Content by Post
You need at least 1 post to view links.

Edited by tearofthesun, 12 November 2013 - 01:32 AM.

  •  
  • Searching faster using Google : " movie's title " + " site:freehd.vn "
  • Only a post is enough / Click THANK / Do not spam !
  • Be polite in asking / complaining / requesting movies, uploaders are nice to you :)
  • If you can upload, plz help us extend forum's Movie List :D
  • ...

#3 Offline trietdo - Posted 11 November 2013 - 07:46 AM

trietdo

    Newbie

  • Members
  • 1 posts
  • 0 topics
0
Neutral

:tengo: nghe hay đấy chứ!



#4 Offline Himylove - Posted 11 November 2013 - 01:22 PM

Himylove

    Newbie

  • Members
  • 2 posts
  • 0 topics
0
Neutral

thx bạn nhé :D



#5 Offline thangpham89 - Posted 11 November 2013 - 07:58 PM

thangpham89

    Newbie

  • Members
  • 1 posts
  • 0 topics
0
Neutral

Thank Bac'...................................!



#6 Offline shiritrong - Posted 11 November 2013 - 08:51 PM

shiritrong

    Newbie

  • Members
  • 1 posts
  • 0 topics
  • LocationSecret Garden
0
Neutral

Wow! She has a great voice!


H e l v e t i c a +


#7 Offline manhkhot92 - Posted 12 November 2013 - 01:12 AM

manhkhot92

    Newbie

  • Members
  • 2 posts
  • 0 topics
0
Neutral

Hay quá, download thui....



#8 Offline manhkhot92 - Posted 12 November 2013 - 01:21 AM

manhkhot92

    Newbie

  • Members
  • 2 posts
  • 0 topics
0
Neutral

 

:sailam:

 

:mega:

Hidden Content by Post
You need at least 1 post to view links.

 

Bạn check lại link. Mình ko down dc, toàn báo lỗi file no longer accessible thôi



#9 Offline tearofthesun - Posted 12 November 2013 - 01:32 AM

tearofthesun

    (。◕‿‿◕。)

  • Super Moderator
  • 5,664 posts
  • 2,646 topics
  • LocationHeaven
8,766
Godlike

Bạn check lại link. Mình ko down dc, toàn báo lỗi file no longer accessible thôi


Đã fix link pub.
Vợ là tài sản đầu tư sinh lời lớn nhất của người đàn ông.


#10 Offline Lão đại - Posted 15 November 2013 - 01:48 PM

Lão đại

    :apku: chính hiệu

  • Moderators
  • 12,239 posts
  • 2,467 topics
  • LocationHà Nội
23,531
Someone Ban Him
:tenlua:
http://tenlua.vn/bich-phuong-chi-la-em-giau-di-2013-flac-rar-0037e42de50d6c/#download0037e42de50d6c
:fs:
http://www.fshare.vn/file/T27FW6F9PT

Edited by Anh già đau khổ, 15 November 2013 - 01:57 PM.

Hướng dẫn Download và Import File ở host Mega.co.nz --> Read here

Khắc phục lỗi khi download thiếu file --> Read here


#11 Offline Lão đại - Posted 15 November 2013 - 01:58 PM

Lão đại

    :apku: chính hiệu

  • Moderators
  • 12,239 posts
  • 2,467 topics
  • LocationHà Nội
23,531
Someone Ban Him
add FS, mà em này có bài nào nghe đc kô?

Hướng dẫn Download và Import File ở host Mega.co.nz --> Read here

Khắc phục lỗi khi download thiếu file --> Read here


#12 Offline tearofthesun - Posted 15 November 2013 - 02:14 PM

tearofthesun

    (。◕‿‿◕。)

  • Super Moderator
  • 5,664 posts
  • 2,646 topics
  • LocationHeaven
8,766
Godlike

add FS, mà em này có bài nào nghe đc kô?


E này nhiều bài được lắm -_- A chưa nghe bao giờ thì nghe Ký Ức Ngủ Quên vs Có Khi Nào Rời Xa trước đi -_-
Vợ là tài sản đầu tư sinh lời lớn nhất của người đàn ông.


#13 Offline Lão đại - Posted 15 November 2013 - 02:25 PM

Lão đại

    :apku: chính hiệu

  • Moderators
  • 12,239 posts
  • 2,467 topics
  • LocationHà Nội
23,531
Someone Ban Him

E này nhiều bài được lắm -_- A chưa nghe bao giờ thì nghe Ký Ức Ngủ Quên vs Có Khi Nào Rời Xa trước đi -_-

Có Khi Nào Rời Xa cũng đc, thế bài Ký Ức Ngủ Quên chưa up à?


Hướng dẫn Download và Import File ở host Mega.co.nz --> Read here

Khắc phục lỗi khi download thiếu file --> Read here


#14 Offline tearofthesun - Posted 15 November 2013 - 02:27 PM

tearofthesun

    (。◕‿‿◕。)

  • Super Moderator
  • 5,664 posts
  • 2,646 topics
  • LocationHeaven
8,766
Godlike

Có Khi Nào Rời Xa cũng đc, thế bài Ký Ức Ngủ Quên chưa up à?


Bài đó ko có lossless :12:
Vợ là tài sản đầu tư sinh lời lớn nhất của người đàn ông.


#15 Offline Lão đại - Posted 15 November 2013 - 02:35 PM

Lão đại

    :apku: chính hiệu

  • Moderators
  • 12,239 posts
  • 2,467 topics
  • LocationHà Nội
23,531
Someone Ban Him

Thế sang CSN kiếm vậy :yaoming:


Hướng dẫn Download và Import File ở host Mega.co.nz --> Read here

Khắc phục lỗi khi download thiếu file --> Read here


#16 Offline tearofthesun - Posted 15 November 2013 - 02:37 PM

tearofthesun

    (。◕‿‿◕。)

  • Super Moderator
  • 5,664 posts
  • 2,646 topics
  • LocationHeaven
8,766
Godlike
CSN :?:
Vợ là tài sản đầu tư sinh lời lớn nhất của người đàn ông.


#17 Offline Lão đại - Posted 15 November 2013 - 02:38 PM

Lão đại

    :apku: chính hiệu

  • Moderators
  • 12,239 posts
  • 2,467 topics
  • LocationHà Nội
23,531
Someone Ban Him

chiasenhac chứ còn j nữa


Hướng dẫn Download và Import File ở host Mega.co.nz --> Read here

Khắc phục lỗi khi download thiếu file --> Read here


#18 Offline tearofthesun - Posted 15 November 2013 - 02:40 PM

tearofthesun

    (。◕‿‿◕。)

  • Super Moderator
  • 5,664 posts
  • 2,646 topics
  • LocationHeaven
8,766
Godlike
Ko có đâu :yaoming:
Vợ là tài sản đầu tư sinh lời lớn nhất của người đàn ông.


#19 Offline Lão đại - Posted 15 November 2013 - 02:44 PM

Lão đại

    :apku: chính hiệu

  • Moderators
  • 12,239 posts
  • 2,467 topics
  • LocationHà Nội
23,531
Someone Ban Him

Sang đấy kiếm 320kbs thôi chứ có phải kiếm Flac đâu =))


Hướng dẫn Download và Import File ở host Mega.co.nz --> Read here

Khắc phục lỗi khi download thiếu file --> Read here


#20 Offline dvpmike - Posted 16 November 2013 - 04:57 AM

dvpmike

    Newbie

  • Members
  • 1 posts
  • 0 topics
0
Neutral

thank you :)






0 user(s) are reading this topic

0 members, 0 guests, 0 anonymous users