Jump to content


Search Form

Sorry, nothing found in database
Total results: , Page of
>
<


Photo
Mega

Various Artists - Độc Tấu Nhạc Cụ Dân Tộc Việt Nam (2002) [FLAC]




  • You cannot start a new topic
  • Please log in to reply
3 replies to this topic

#1 Offline Phantom_Ghost - Posted 26 February 2014 - 07:53 PM

Phantom_Ghost

    Tôm

  • Moderators
  • 1,273 posts
  • 761 topics
2,546
Incredible
  

Various Artists - Độc Tấu Nhạc Cụ Dân Tộc Việt Nam (2002) [FLAC]

 

mIsO3Bv.jpg

:info:

Exact Audio Copy V1.0 beta 3 from 29. August 2011

EAC extraction logfile from 4. April 2012, 5:09

Various Artists  / Doc Tau Nhac Cu Dan Toc Viet Nam (Traditional Folk Music)

Used drive  : SlimtypeDVD A DS8A4SH   Adapter: 1  ID: 0

Read mode               : Secure
Utilize accurate stream : Yes
Defeat audio cache      : Yes
Make use of C2 pointers : No

Read offset correction                      : 6
Overread into Lead-In and Lead-Out          : No
Fill up missing offset samples with silence : Yes
Delete leading and trailing silent blocks   : No
Null samples used in CRC calculations       : Yes
Used interface                              : Native Win32 interface for Win NT & 2000
Gap handling                                : Appended to previous track

Used output format              : User Defined Encoder
Selected bitrate                : 896 kBit/s
Quality                         : High
Add ID3 tag                     : No
Command line compressor         : C:\Program Files\Exact Audio Copy\FLAC\FLAC.EXE
Additional command line options : -8 -V -T "ARTIST=%artist%" -T "TITLE=%title%" -T "ALBUM=%albumtitle%" -T "DATE=%year%" -T "TRACKNUMBER=%tracknr%" -T "GENRE=%genre%" -T "COMMENT=%comment%" -T "BAND=%albuminterpret%" -T "ALBUMARTIST=%albuminterpret%" -T "COMPOSER=%composer%" %haslyrics%--tag-from-file=LYRICS="%lyricsfile%"%haslyrics% -T "DISCNUMBER=%cdnumber%" -T "TOTALDISCS=%totalcds%" -T "TOTALTRACKS=%numtracks%" %hascover%--picture="%coverfile%"%hascover% %source% -o %dest%


TOC of the extracted CD

     Track |   Start  |  Length  | Start sector | End sector 
    ---------------------------------------------------------
        1  |  0:00.00 |  3:34.04 |         0    |    16053   
        2  |  3:34.04 |  5:24.56 |     16054    |    40409   
        3  |  8:58.60 |  3:19.24 |     40410    |    55358   
        4  | 12:18.09 |  3:02.62 |     55359    |    69070   
        5  | 15:20.71 |  5:46.70 |     69071    |    95090   
        6  | 21:07.66 |  3:07.69 |     95091    |   109184   
        7  | 24:15.60 |  6:59.63 |    109185    |   140672   
        8  | 31:15.48 |  1:31.73 |    140673    |   147570   
        9  | 32:47.46 |  5:54.62 |    147571    |   174182   
       10  | 38:42.33 |  5:04.43 |    174183    |   197025   
       11  | 43:47.01 |  4:42.49 |    197026    |   218224   
       12  | 48:29.50 |  3:55.08 |    218225    |   235857   
       13  | 52:24.58 |  4:59.66 |    235858    |   258348   
       14  | 57:24.49 |  1:49.71 |    258349    |   266594   


Track  1

     Filename D:\Downloads\QD\Various Artists - Doc Tau Nhac Cu Dan Toc Viet Nam (Traditional Folk Music) (2002) [FLAC]\01 - Suoi Dan T'Rung.wav

     Pre-gap length  0:00:02.00

     Peak level 100.0 %
     Extraction speed 55.0 X
     Track quality 100.0 %
     Test CRC 9FC5B4BF
     Copy CRC 9FC5B4BF
     Accurately ripped (confidence 1)  [7C98ADD4]  (AR v1)
     Copy OK

Track  2

     Filename D:\Downloads\QD\Various Artists - Doc Tau Nhac Cu Dan Toc Viet Nam (Traditional Folk Music) (2002) [FLAC]\02 - Tinh Que Huong.wav

     Peak level 100.0 %
     Extraction speed 42.4 X
     Track quality 100.0 %
     Test CRC 7592712C
     Copy CRC 7592712C
     Accurately ripped (confidence 1)  [7F839153]  (AR v1)
     Copy OK

Track  3

     Filename D:\Downloads\QD\Various Artists - Doc Tau Nhac Cu Dan Toc Viet Nam (Traditional Folk Music) (2002) [FLAC]\03 - Hen Ho.wav

     Peak level 100.0 %
     Extraction speed 49.2 X
     Track quality 100.0 %
     Test CRC 9EBE72EE
     Copy CRC 9EBE72EE
     Accurately ripped (confidence 1)  [24B14502]  (AR v1)
     Copy OK

Track  4

     Filename D:\Downloads\QD\Various Artists - Doc Tau Nhac Cu Dan Toc Viet Nam (Traditional Folk Music) (2002) [FLAC]\04 - Mua Xuan Den.wav

     Peak level 100.0 %
     Extraction speed 50.0 X
     Track quality 100.0 %
     Test CRC 14CF2254
     Copy CRC 14CF2254
     Accurately ripped (confidence 1)  [5F7D2893]  (AR v1)
     Copy OK

Track  5

     Filename D:\Downloads\QD\Various Artists - Doc Tau Nhac Cu Dan Toc Viet Nam (Traditional Folk Music) (2002) [FLAC]\05 - Goi Do.wav

     Peak level 83.1 %
     Extraction speed 44.0 X
     Track quality 99.9 %
     Test CRC C43C7886
     Copy CRC C43C7886
     Accurately ripped (confidence 1)  [C73E4894]  (AR v1)
     Copy OK

Track  6

     Filename D:\Downloads\QD\Various Artists - Doc Tau Nhac Cu Dan Toc Viet Nam (Traditional Folk Music) (2002) [FLAC]\06 - Canh Chim Tu Do.wav

     Peak level 88.9 %
     Extraction speed 39.9 X
     Track quality 99.9 %
     Test CRC 1CB83384
     Copy CRC 1CB83384
     Accurately ripped (confidence 1)  [0138610E]  (AR v1)
     Copy OK

Track  7

     Filename D:\Downloads\QD\Various Artists - Doc Tau Nhac Cu Dan Toc Viet Nam (Traditional Folk Music) (2002) [FLAC]\07 - Khuc Hat Ru.wav

     Peak level 100.0 %
     Extraction speed 28.7 X
     Track quality 100.0 %
     Test CRC D5C299E2
     Copy CRC D5C299E2
     Accurately ripped (confidence 1)  [D086FCE6]  (AR v1)
     Copy OK

Track  8

     Filename D:\Downloads\QD\Various Artists - Doc Tau Nhac Cu Dan Toc Viet Nam (Traditional Folk Music) (2002) [FLAC]\08 - Tieng Trong Hoi Xuan.wav

     Peak level 100.0 %
     Extraction speed 45.3 X
     Track quality 99.8 %
     Test CRC 27A4F2CB
     Copy CRC 27A4F2CB
     Accurately ripped (confidence 1)  [4CC342EE]  (AR v1)
     Copy OK

Track  9

     Filename D:\Downloads\QD\Various Artists - Doc Tau Nhac Cu Dan Toc Viet Nam (Traditional Folk Music) (2002) [FLAC]\09 - Chi Mot Niem Tin.wav

     Peak level 100.0 %
     Extraction speed 59.6 X
     Track quality 100.0 %
     Test CRC D8AA078E
     Copy CRC D8AA078E
     Accurately ripped (confidence 1)  [213817F6]  (AR v1)
     Copy OK

Track 10

     Filename D:\Downloads\QD\Various Artists - Doc Tau Nhac Cu Dan Toc Viet Nam (Traditional Folk Music) (2002) [FLAC]\10 - Ru Con.wav

     Peak level 100.0 %
     Extraction speed 53.3 X
     Track quality 100.0 %
     Test CRC D3051555
     Copy CRC D3051555
     Cannot be verified as accurate (confidence 1)  [96D51C26], AccurateRip returned [90A0F0C7]  (AR v2)
     Copy OK

Track 11

     Filename D:\Downloads\QD\Various Artists - Doc Tau Nhac Cu Dan Toc Viet Nam (Traditional Folk Music) (2002) [FLAC]\11 - Dong Suoi Ho Rieng.wav

     Peak level 100.0 %
     Extraction speed 57.4 X
     Track quality 100.0 %
     Test CRC C6ED3F01
     Copy CRC C6ED3F01
     Accurately ripped (confidence 1)  [BA0C1156]  (AR v1)
     Copy OK

Track 12

     Filename D:\Downloads\QD\Various Artists - Doc Tau Nhac Cu Dan Toc Viet Nam (Traditional Folk Music) (2002) [FLAC]\12 - Que Ta.wav

     Peak level 100.0 %
     Extraction speed 56.5 X
     Track quality 100.0 %
     Test CRC F73D6D51
     Copy CRC F73D6D51
     Accurately ripped (confidence 1)  [D6A2E090]  (AR v1)
     Copy OK

Track 13

     Filename D:\Downloads\QD\Various Artists - Doc Tau Nhac Cu Dan Toc Viet Nam (Traditional Folk Music) (2002) [FLAC]\13 - Tim Em Noi Nui Rung.wav

     Peak level 100.0 %
     Extraction speed 55.7 X
     Track quality 100.0 %
     Test CRC DE5BFE59
     Copy CRC DE5BFE59
     Accurately ripped (confidence 1)  [794B1C29]  (AR v1)
     Copy OK

Track 14

     Filename D:\Downloads\QD\Various Artists - Doc Tau Nhac Cu Dan Toc Viet Nam (Traditional Folk Music) (2002) [FLAC]\14 - Mung Hoi Hoa Bong.wav

     Peak level 100.0 %
     Extraction speed 57.0 X
     Track quality 100.0 %
     Test CRC 39241F4C
     Copy CRC 39241F4C
     Accurately ripped (confidence 1)  [47869D7C]  (AR v1)
     Copy OK


13 track(s) accurately ripped
 1 track(s) could not be verified as accurate

Some tracks could not be verified as accurate

No errors occurred

End of status report

==== Log checksum 9D092A364ACAB0C5A201263B1B1CE2D88521A0B3B6E24C774B16B35729DF4068 ====

:tracklist:

01. Suối Đàn T'Rưng
02. Tình Quê Hương (Độc Tấu Nhị)
03. Hèn Hò (Độc Tấu Sáo Mèo)
04. Mùa Xuân Đến (Độc Tấu Clong Put)
05. Gọi Đò (Dân Ca Quan Họ)
06. Cánh Chim Tự Do (Độc Tấu sáo)
07. Khúc Hát Ru (Độc Tấu Thập Lục)
08. Tiếng Trống Hội Xuân
09. Chỉ Một Niềm Tin (Độc Tấu Đàn Tỳ Bà)
10. Ru Con (Độc Tấu Đàn Bầu)
11. Dòng Suối H'Riêng
12. Quê Ta (Độc Tấu Đàn Nguyệt)
13. Tìm Em Nơi Núi Rừng (Độc Tấu Kní)
14. Mừng Hội Hoa Bông

:dl:
 
1 link - 3% Recovery Records
:mega:

PRIVATE CONTENT
This content for backup only. You can view public links below post to download

:pw:

freehd.vn

:uploader:

phantom_ghost@FreeHD.VN


#2 Offline vkt - Posted 26 February 2014 - 07:56 PM

vkt

    Advanced Member

  • Supporter
  • 1,268 posts
  • 503 topics
3,029
Incredible
:mega: 32
Hidden Content by Post
You need at least 1 post to view links.


#3 Offline huudu193 - Posted 28 February 2014 - 10:40 AM

huudu193

    Newbie

  • Members
  • 4 posts
  • 0 topics
0
Neutral

Cám ơn. album rất hay :)

 



#4 Offline VNUIT - Posted 01 May 2014 - 08:59 PM

VNUIT

    Newbie

  • Members
  • 1 posts
  • 0 topics
0
Neutral

cám ơn bạn, album này tìm mãi mới mới thấy






0 user(s) are reading this topic

0 members, 0 guests, 0 anonymous users