Jump to content


Search Form

Sorry, nothing found in database
Total results: , Page of
>
<


Photo
Fshare

Chương Trình Ca Nhạc Thúy Nga Paris By Night 108 Time - Thời Gian DVD 9 MKV - (Đã Loại Bỏ Quảng Cáo)

hungdaita


  • You cannot start a new topic
  • Please log in to reply
1 reply to this topic

#1 Offline hungdaita - Posted 01 June 2013 - 03:28 AM

hungdaita

    Advanced Member

  • Members
  • 43 posts
  • 15 topics
71
Well Done

Chương Trình Ca Nhạc Thúy Nga Paris By Night 108 Time - Thời Gian

DVD9 MKV - (Đã Loại Bỏ Quảng Cáo)

 

 

 

NKOjP9e.jpg

 

uaUqlvX.jpg

 

qx7Zs6c.jpg

 

H5PfF6L.jpg

 

infosm.png

Complete name                            : D:\A.ThuyNga\Paris.By.Night.108.DVD9.Disc1.mkv
Format                                  : Matroska
Format version                          : Version 2
File size                                : 5.38 GiB
Duration                                : 2h 15mn
Overall bit rate mode                    : Variable
Overall bit rate                        : 5 693 Kbps
Encoded date                            : UTC 2013-05-31 13:13:18
 
Video
ID                                      : 1
Format                                  : MPEG Video
Format version                          : Version 2
Format profile                          : Main@Main
Format settings, BVOP                    : No
Format settings, Matrix                  : Custom
Codec ID                                : V_MPEG2
Codec ID/Info                            : MPEG 1 or 2 Video
Duration                                : 2h 15mn
Bit rate mode                            : Variable
Bit rate                                : 5 132 Kbps
Maximum bit rate                        : 9 800 Kbps
Width                                    : 720 pixels
Height                                  : 480 pixels
Display aspect ratio                    : 16:9
Original display aspect ratio            : 16:9
Frame rate                              : 29.970 fps
Standard                                : NTSC
Color space                              : YUV
Chroma subsampling                      : 4:2:0
Bit depth                                : 8 bits
Scan type                                : Interlaced
Scan order                              : Bottom Field First
Compression mode                        : Lossy
Bits/(Pixel*Frame)                      : 0.495
Stream size                              : 4.85 GiB (90%)
Language                                : English
Default                                  : Yes
Forced                                  : No
 
Audio
ID                                      : 2
Format                                  : AC-3
Format/Info                              : Audio Coding 3
Mode extension                          : CM (complete main)
Format settings, Endianness              : Big
Codec ID                                : A_AC3
Duration                                : 2h 15mn
Bit rate mode                            : Constant
Bit rate                                : 448 Kbps
Channel(s)                              : 6 channels
Channel positions                        : Front: L C R, Side: L R, LFE
Sampling rate                            : 48.0 KHz
Bit depth                                : 16 bits
Compression mode                        : Lossy
Stream size                              : 433 MiB (8%)
Title                                    : 3/2+1
Language                                : English
Default                                  : Yes
Forced                                  : No
 
Menu
00:00:00.000                            : en:Chapter 01
00:00:54.454                            : en:Chapter 02
00:11:24.684                            : en:Chapter 03
00:14:53.926                            : en:Chapter 04
00:23:58.036                            : en:Chapter 05
00:33:16.094                            : en:Chapter 06
00:39:51.956                            : en:Chapter 07
00:48:07.885                            : en:Chapter 08
00:53:48.091                            : en:Chapter 09
00:59:08.111                            : en:Chapter 10
01:07:26.375                            : en:Chapter 11
01:15:30.392                            : en:Chapter 12
01:20:53.048                            : en:Chapter 13
01:29:12.880                            : en:Chapter 14
01:32:29.644                            : en:Chapter 15
01:40:28.355                            : en:Chapter 16
01:47:05.485                            : en:Chapter 17
01:52:54.501                            : en:Chapter 18
01:58:04.410                            : en:Chapter 19
02:04:20.753                            : en:Chapter 20
02:08:28.133                            : en:Chapter 21
02:15:12.237                            : en:Chapter 22
 
Code:
Complete name                            : D:\A.ThuyNga\Paris.By.Night.108.DVD9.Disc2.mkv
Format                                  : Matroska
Format version                          : Version 2
File size                                : 5.00 GiB
Duration                                : 2h 11mn
Overall bit rate mode                    : Variable
Overall bit rate                        : 5 450 Kbps
Encoded date                            : UTC 2013-05-31 16:14:16
 
 
Video
ID                                      : 1
Format                                  : MPEG Video
Format version                          : Version 2
Format profile                          : Main@Main
Format settings, BVOP                    : No
Format settings, Matrix                  : Custom
Codec ID                                : V_MPEG2
Codec ID/Info                            : MPEG 1 or 2 Video
Duration                                : 2h 11mn
Bit rate mode                            : Variable
Bit rate                                : 4 893 Kbps
Maximum bit rate                        : 9 800 Kbps
Width                                    : 720 pixels
Height                                  : 480 pixels
Display aspect ratio                    : 16:9
Original display aspect ratio            : 16:9
Frame rate                              : 29.970 fps
Standard                                : NTSC
Color space                              : YUV
Chroma subsampling                      : 4:2:0
Bit depth                                : 8 bits
Scan type                                : Interlaced
Scan order                              : Bottom Field First
Compression mode                        : Lossy
Bits/(Pixel*Frame)                      : 0.472
Stream size                              : 4.49 GiB (90%)
Language                                : English
Default                                  : Yes
Forced                                  : No
 
Audio
ID                                      : 2
Format                                  : AC-3
Format/Info                              : Audio Coding 3
Mode extension                          : CM (complete main)
Format settings, Endianness              : Big
Codec ID                                : A_AC3
Duration                                : 2h 11mn
Bit rate mode                            : Constant
Bit rate                                : 448 Kbps
Channel(s)                              : 6 channels
Channel positions                        : Front: L C R, Side: L R, LFE
Sampling rate                            : 48.0 KHz
Bit depth                                : 16 bits
Compression mode                        : Lossy
Stream size                              : 421 MiB (8%)
Title                                    : 3/2+1
Language                                : English
Default                                  : Yes
Forced                                  : No
 
Menu
00:00:00.000                            : en:Chapter 01
00:00:32.332                            : en:Chapter 02
00:34:29.534                            : en:Chapter 03
00:40:13.944                            : en:Chapter 04
00:45:18.982                            : en:Chapter 05
00:48:18.428                            : en:Chapter 06
00:55:46.376                            : en:Chapter 07
01:01:12.802                            : en:Chapter 08
01:13:28.270                            : en:Chapter 09
01:21:42.230                            : en:Chapter 10
01:29:40.942                            : en:Chapter 11
01:38:27.735                            : en:Chapter 12
01:42:39.219                            : en:Chapter 13
01:53:08.281                            : en:Chapter 14
01:59:35.768                            : en:Chapter 15
02:03:07.146                            : en:Chapter 16
02:07:49.528                            : en:Chapter 17

1. LK Bốn Mùa - Minh Tuyết, Ngọc Anh, Kỳ Phương Uyên, Tóc Tiên

 

2. LK: Chiều Trên Phá Tam Giang & Trên Đỉnh Mùa Đông (Trần Thiện Thanh) - Thế Sơn, Lam Anh

 

3. Chỉ Chừng Đó Thôi (Phạm Duy) - Don Hồ

 

4. LK: Giây Phút Chia Tay & Giờ Thì Anh Đã Biết (Thái Thịnh) - Lương Tùng Quang, Diễm Sương

 

5. Bông Cỏ May (Trúc Phương) - Giang Tử

 

6. Em Đi Qua Để Lại (Quốc Hùng) - Lưu Bích

 

7. Ảo Giác (Lương Bằng Quang) - Thanh Hà

 

8. Phút Cuối (Võ Hoài Phúc) - Trịnh Lam

 

9. Giọng Ca Dĩ Vãng (Bảo Thu) - Như Quỳnh

 

10. LK: Hình Ảnh Người Em Không Đợi (Hoàng Thi Thơ) & Hoài Thu (Văn Trí) - Hương Thủy, Hạ Vy

 

11. Tình Cầm (Phạm Duy) - Đình Bảo

 

12. Chỉ Còn Lại Tình Yêu (Tiến Minh) - Bằng Kiều

 

13. Lắng Nghe Thời Gian (Lương Bằng Quang) - Mai Tiến Dũng

 

14. Hài Kịch "Hoa Hậu Phu Nhân" (Nguyễn Ngọc Ngạn) - Chí Tài, Việt Hương, Hoài Tâm, Thúy Nga

 

15. Thay Thế (Lương Bằng Quang) - Minh Tuyết

 

16. Bảy Ngày Đợi Mong (Trần Thiện Thanh) - Trần Thái Hòa & Quỳnh Vi

 

17. Hương Xưa (Cung Tiến) - Thiên Tôn

 

18. LK: 60 Năm Cuộc Đời & 20-40 (Y Vân) - Nguyễn Hưng & Như Loan

 

19. Tân Cổ "Hoa Mười Giờ" (Tân nhạc: Đài Phương Trang) - Duy Trường & Mai Thiên Vân

 

20. Một Ngày Không Còn Xa (Hoài An) - Anh Tú, Kỳ Phương Uyên

 

21. Khi Xưa Ta Bé (LV: Phạm Duy) - Thu Phương

 

22. Đêm bơ vơ (Duy Khánh)- Khánh Lâm

 

23. Đường Xưa Lối Cũ (Hoàng Thi Thơ) - Quang Lê

 

24. Bước Cùng Thời Gian (Nguyễn Đức Cường) - Ánh Minh

 

25. Nha Trang Ngày Về (Phạm Duy) - Ngọc Anh

 

26. Em Đẹp Nhất Đêm Nay (LV: Phạm Duy) - Tóc Tiên

 

screenuv.png

 

ow4JI3K.jpg

 

OtMQeLx.jpg

 

 

 

 

hungdaita.png

 

 

 

ONE LINK: (Disc 1: 5,37 GB) + (Disc 2: 4,99 GB)

 

bantaych.gif

 

 

ThuyNga108.DVD9 -MKV

 

 

 

saythank.gif


Edited by hungdaita, 01 June 2013 - 03:34 AM.


#2 Offline cgs.bi - Posted 13 June 2013 - 05:32 PM

cgs.bi

    Newbie

  • Members
  • 1 posts
  • 0 topics
0
Neutral

Vừa upload mà đã bị xóa mất rồi, hic, đang download gần xong Disk 1, được 96.57% thì nó tèo rồi :(( Mong bạn re-upload lại để mình có thể resume nha. Thanks bạn.






0 user(s) are reading this topic

0 members, 0 guests, 0 anonymous users